<?xml version="1.0" standalone="no"?>
<!DOCTYPE svg PUBLIC "-//W3C//DTD SVG 1.1//EN" "http://www.w3.org/Graphics/SVG/1.1/DTD/svg11.dtd" >
<svg>
<metadata>
Created by FontForge 20120731 at Thu Aug 11 12:15:03 2016
 By www
</metadata>
<defs>
<font id="AvantGarde-BookTh" horiz-adv-x="235" >
  <font-face 
    font-family="AvantGarde-Book Th"
    font-weight="400"
    font-stretch="normal"
    units-per-em="1000"
    panose-1="0 0 6 0 0 0 0 2 0 0"
    ascent="800"
    descent="-200"
    x-height="547"
    cap-height="739"
    bbox="-97 -222 978 989"
    underline-thickness="50"
    underline-position="-55"
    unicode-range="U+0020-F002"
  />
<missing-glyph 
 />
    <glyph glyph-name=".notdef" 
 />
    <glyph glyph-name="glyph1" horiz-adv-x="0" 
 />
    <glyph glyph-name="glyph2" horiz-adv-x="277" 
 />
    <glyph glyph-name="space" unicode=" " 
 />
    <glyph glyph-name="space" unicode="&#xa0;" 
 />
    <glyph glyph-name="exclam" unicode="!" horiz-adv-x="250" 
d="M94 0v126h63v-126h-63v0v0v0zM94 193v546h63v-546h-63v0v0v0z" />
    <glyph glyph-name="quotedbl" unicode="&#x22;" horiz-adv-x="262" 
d="M62 513v226h45v-226h-45v0v0v0zM157 513v226h44v-226h-44v0v0v0z" />
    <glyph glyph-name="numbersign" unicode="#" horiz-adv-x="470" 
d="M68 0l62 250h-126l13 58h128l30 123h-126l13 58h129l62 250h36l-62 -250h76l63 250h35l-62 -250h127l-13 -58h-129l-30 -123h127l-14 -58h-129l-62 -250h-36l63 250h-77l-63 -250h-35v0v0v0zM181 308h77l30 123h-77l-30 -123v0v0v0z" />
    <glyph glyph-name="dollar" unicode="$" horiz-adv-x="470" 
d="M208 -54v83q-15 2 -28.5 7t-26.5 12q-13 8 -24 18.5t-22 23.5t-19.5 27t-13.5 30q-5 15 -8 31.5t-3 34.5v14h60v-2v-1v-1.5v-0.5v-1.5v-0.5v0v0v-1v0q0 -13 2 -26t6 -24q4 -12 10.5 -22t14.5 -19q8 -10 17 -16.5t19 -11.5q10 -4 21 -6.5t23 -2.5q11 0 21 2.5t20 6.5
q10 5 19 11.5t17 16.5q8 9 14.5 19.5t10.5 21.5t6 23.5t2 25.5q0 17 -2 31.5t-6 26.5t-10.5 22t-14.5 17t-17 13t-19 12t-21.5 11t-23.5 9q-8 2 -15 4.5t-14 5.5l-14 6t-14 7q-5 2 -9.5 4.5t-8.5 5.5q-2 2 -4.5 3.5t-4.5 2.5q-2 2 -4 3.5t-4 3.5q-4 3 -8 7.5t-8 8.5
q-5 6 -9.5 13t-8.5 14q-4 8 -7.5 15.5t-5.5 15.5t-4 16.5t-4 16.5q-1 8 -1.5 17t-0.5 18q0 17 2 32.5t6 29.5t10.5 27.5t15.5 25.5q8 12 18 22t22 17q11 8 24 13t27 8v85h55v-83q15 -4 28 -9t26 -13q13 -7 23.5 -17.5t20.5 -22.5q10 -13 17 -27t12 -29t7.5 -31.5t3.5 -34.5
l-60 2q-1 12 -2.5 23.5t-5.5 21.5q-4 11 -9 20t-13 17q-7 8 -15 14.5t-17 10.5q-10 5 -20 7t-21 2h-4h-3q-2 -1 -3.5 -1h-3.5t-3.5 -0.5t-3.5 -0.5q-2 -1 -3.5 -1.5t-3.5 -0.5q-3 -1 -6 -2.5t-6 -3.5q-4 -1 -7 -3.5t-6 -4.5l-1.5 -1.5t-1.5 -0.5h-0.5h-0.5q0 -1 -0.5 -1
h-0.5l-1.5 -1.5l-0.5 -0.5l-1.5 -1.5l-0.5 -0.5q-4 -5 -8.5 -10t-7.5 -10t-5.5 -10.5t-4.5 -10.5t-3 -11l-2 -12q-1 -7 -1.5 -13.5t-0.5 -13.5q0 -15 1.5 -27.5t5.5 -23.5q4 -10 10 -18t13 -13q8 -6 16 -10.5t17 -9.5q9 -4 19 -8.5t20 -7.5l3 -1.5t2 -0.5l3 -1.5t2 -0.5
l1.5 -1.5t1.5 -0.5h1.5h1.5q0 -1 1 -1.5t2 -0.5h1.5h0.5q6 -2 12 -4.5t12 -5.5q3 -1 6.5 -2.5t6.5 -3.5q3 -1 6 -2.5t6 -3.5l6 -4l6 -4q2 -2 5 -4l6 -4t5.5 -4.5l4.5 -4.5l4.5 -4.5l5.5 -5.5q6 -7 11.5 -15t9.5 -16q5 -8 9 -16.5t7 -17.5q1 -2 1.5 -4.5t0.5 -5.5
q2 -7 3.5 -14t2.5 -14q2 -9 3 -18.5t1 -19.5q0 -18 -3 -34.5t-8 -33.5q-5 -16 -12.5 -31.5t-18.5 -29.5q-10 -15 -21.5 -26t-24.5 -19t-27 -12.5t-29 -5.5v-81h-55v0v0v0z" />
    <glyph glyph-name="percent" unicode="%" horiz-adv-x="658" 
d="M492 338q15 -1 29.5 -5t27.5 -11t25 -16.5t22 -23.5q11 -13 19 -28t13 -30q5 -16 8 -32.5t3 -34.5t-3 -34.5t-8 -31.5q-6 -15 -14 -29t-19 -26q-11 -13 -23 -22t-25 -14q-13 -6 -27.5 -9t-28.5 -3q-16 0 -30 3t-27 9q-13 5 -25 14t-23 22t-19.5 27t-13.5 29
q-6 15 -8.5 31.5t-2.5 34.5t2.5 35t8.5 33q5 16 13.5 30.5t18.5 27.5q11 13 23.5 22.5t25.5 16.5q13 6 27.5 9.5t30.5 3.5v2v0v0zM492 267q-10 -1 -19 -3.5t-17 -6.5t-15 -9.5t-14 -13.5q-6 -8 -11 -17t-8 -18q-3 -10 -4.5 -20.5t-1.5 -21.5t1.5 -21t4.5 -19q4 -9 9 -17
t12 -15q6 -7 13.5 -13t14.5 -9q8 -4 16.5 -5.5t17.5 -1.5t18 1.5t16 5.5q8 4 14.5 10t13.5 14q6 8 10.5 16t8.5 17q3 9 4.5 19.5t1.5 21.5t-1.5 20.5t-4.5 18.5q-4 9 -8.5 17.5t-10.5 16.5q-7 8 -13.5 13.5t-14.5 9.5q-7 4 -15.5 6t-17.5 2v2v0v0zM153 0l283 739h61
l-282 -739h-62v0v0v0zM160 751q16 -1 30 -5t27 -10q13 -7 25 -16.5t23 -22.5q10 -13 18 -27t12 -29q5 -16 8 -32.5t3 -34.5t-3 -35t-8 -32t-13.5 -29t-19.5 -27q-10 -13 -22 -23t-25 -16q-13 -7 -27 -10t-29 -3t-29.5 3t-27.5 10q-13 6 -24.5 16t-22.5 23q-12 13 -20 27
t-13 30q-6 16 -8.5 33t-2.5 35t2.5 35t7.5 32t13.5 29t18.5 27q11 12 23.5 21.5t25.5 15.5t27.5 9.5t30.5 3.5v2v0v0zM160 680q-10 -1 -19 -3.5t-17 -6.5t-15 -9t-13 -12q-7 -7 -12 -15.5t-7 -17.5q-3 -9 -4.5 -19.5t-1.5 -21.5t1.5 -21.5t4.5 -19.5t8 -17t11 -16
q7 -8 14 -14t14 -10q4 -2 8.5 -3.5t8.5 -1.5q4 -1 8.5 -1.5t8.5 -0.5q9 0 18 2t16 6q8 4 15 10t14 14q6 8 10.5 17t7.5 19q3 9 5 19.5t2 21.5q0 10 -2 19t-5 18t-7.5 17.5t-10.5 15.5q-7 7 -14 12t-15 9q-7 4 -15 6t-17 2v2v0v0z" />
    <glyph glyph-name="ampersand" unicode="&#x26;" horiz-adv-x="643" 
d="M511 480h71l-117 -261l159 -182l-45 -50l-143 165q-4 -9 -8.5 -18l-8.5 -17q-4 -9 -8.5 -16.5t-8.5 -15.5q-10 -15 -20.5 -28.5t-21.5 -24.5q-11 -12 -24.5 -20.5t-28.5 -12.5q-14 -5 -30.5 -8t-33.5 -3q-21 0 -40 4t-36 11q-17 8 -32.5 20.5t-29.5 29.5q-15 17 -25.5 35
t-17.5 38t-10.5 42t-3.5 46q0 20 2.5 38.5t8.5 34.5q5 17 13.5 32.5t18.5 28.5q11 14 22.5 26t23.5 22q12 11 25 20.5t27 17.5q-1 0 -1.5 0.5t-0.5 1.5l-0.5 0.5l-1.5 1.5l-2 2l-2 2t-1.5 2t-1.5 2l-1.5 1.5t-0.5 1.5q-1 0 -1 0.5v1.5q-6 7 -11.5 14.5t-10.5 14.5
q-4 8 -8.5 16t-7.5 16q-4 8 -6.5 16.5t-4.5 18.5q-1 9 -2 19.5t-1 21.5q0 17 2.5 32.5t8.5 29.5q5 14 14 27t21 25q11 11 22.5 19.5t24.5 14.5t26.5 9t27.5 4q15 -1 30 -4.5t28 -9.5t25.5 -15.5t24.5 -21.5q11 -13 19.5 -27t14.5 -29q5 -15 8.5 -32t4.5 -36
q-1 -16 -3.5 -30.5t-7.5 -28.5q-4 -13 -11.5 -24.5t-17.5 -21.5q-9 -10 -19 -19t-21 -17q-10 -7 -21 -13.5t-23 -11.5l119 -136l91 208v0v0v0zM238 379l-28 -17q-5 -4 -10 -7.5t-9 -6.5q-5 -4 -9.5 -7.5t-9.5 -7.5q-9 -7 -17 -15.5t-15 -16.5q-7 -9 -12.5 -19.5t-9.5 -21.5
q-4 -12 -5.5 -25t-1.5 -27q0 -15 2 -29t7 -28q5 -13 12 -26t16 -24q9 -12 19.5 -20.5t21.5 -14.5t23.5 -8.5t25.5 -1.5q14 -1 27.5 1.5t25.5 8.5q11 6 21.5 14.5t18.5 20.5q8 11 16 23t15 25q5 9 9.5 17.5t8.5 17.5q2 5 4.5 9.5t4.5 9.5l-151 176v0v0v0zM362 586
q0 8 -2 16.5t-5 15.5q-3 8 -7.5 15t-11.5 14q-3 3 -6.5 6t-6.5 6t-6.5 5t-6.5 4q-7 4 -14 6t-14 3h-1.5h-0.5v0v1h-1.5h-0.5v0v0h-1v0v0v0h-1v0v0v0h-1.5h-0.5v0v0h-1v0q-9 0 -17 -2t-16 -5q-7 -3 -14 -8t-14 -11q-7 -7 -12 -14.5t-8 -16.5q-4 -9 -5 -18t-1 -20q0 -7 1 -14
l2 -14q2 -7 4.5 -13t6.5 -12l8 -12t8 -11q4 -6 8.5 -11t8.5 -10q2 -2 3 -3.5t2 -3.5q2 -1 3 -2.5t2 -3.5l1.5 -1.5l1.5 -1.5l1.5 -1.5t1.5 -0.5q0 -1 1 -2t2 -1l1.5 -1.5l1.5 -1.5q1 1 2 1.5t2 0.5l1 0.5l1 0.5q1 0 2 0.5t2 1.5l1 0.5t2 0.5t2 0.5t2 1.5q1 0 2 0.5t2 1.5
q1 0 2 0.5t2 1.5l1 0.5t2 1.5q8 4 14.5 8.5t13.5 9.5q6 5 12.5 10.5t13.5 12.5q6 7 10.5 14.5t7.5 15.5t5 17.5t2 19.5v2v0v0z" />
    <glyph glyph-name="quotesingle" unicode="'" horiz-adv-x="168" 
d="M62 513v226h43v-226h-43v0v0v0z" />
    <glyph glyph-name="parenleft" unicode="(" horiz-adv-x="313" 
d="M284 739v-65q-18 -13 -34.5 -28.5t-32.5 -33.5q-15 -18 -28 -37.5t-25 -42.5q-11 -23 -20 -46.5t-15 -47.5q-7 -24 -11 -48t-5 -49q-1 -3 -1.5 -5.5t-0.5 -4.5v-5.5v-4.5v-1.5v-0.5v-1.5v-1.5v-2v-2v-2.5v-3.5v-2v-2v-4v-4v-5v-4v-8t1 -8v-4.5t1 -4.5v-4.5v-4.5
q0 -4 0.5 -8t1.5 -8q3 -22 8.5 -44.5t12.5 -43.5q7 -22 16.5 -43t20.5 -41q11 -21 23.5 -39t26.5 -32q14 -15 29.5 -28.5t31.5 -24.5v-66q-10 4 -19.5 8.5t-19.5 10.5q-6 4 -12 8.5t-12 9.5q-3 3 -6 5.5t-6 5.5q-5 4 -9.5 9t-9.5 9q-4 5 -8 9.5t-8 9.5q-2 2 -4 4.5t-4 4.5
q-5 7 -10.5 14.5t-10.5 14.5l-2 2l-2 2q-1 0 -1.5 1t-1.5 2l-2 2t-1 2q-1 1 -2 2.5t-2 2.5t-1.5 2t-1.5 2q-1 2 -1.5 3.5t-1.5 2.5l-0.5 0.5t-0.5 1.5l-0.5 0.5t-0.5 1.5t-0.5 1.5t-0.5 1.5q-1 0 -1.5 0.5t-0.5 1.5q-9 15 -17 30.5t-14 31.5q-7 17 -12 33.5t-10 33.5
t-8.5 34.5t-6.5 35.5q-2 18 -3 36t-1 36t1 36l2 36q2 17 5.5 34.5t7.5 33.5q2 8 4.5 16t4.5 17l6 16l6 16q7 16 14 31.5t16 31.5q2 2 3 4.5t2 4.5q2 2 3 4.5t2 4.5q2 2 3 4.5t2 4.5l2 2t2 3q0 1 1 2.5t2 2.5q4 5 7.5 10t7.5 11l8 10l8 10q8 10 17 19.5t19 19.5q9 9 19 17
t20 14t20.5 11t20.5 8v2v0v0z" />
    <glyph glyph-name="parenright" unicode=")" horiz-adv-x="313" 
d="M28 -127v65q17 12 32.5 25.5t29.5 28.5q14 14 26 32t24 39q11 20 20 41t16 43q8 21 12.5 43.5t8.5 44.5q1 4 1 8v8q0 5 0.5 9.5t1.5 8.5v4t1 4v4v4v4t1 5v4v4v2v2v3.5v2.5q-1 1 -1 2v2v1.5v1.5v0.5v1.5v2v2v3.5v2.5q-1 1 -1 2v2v3.5v2.5q-1 25 -5.5 49t-11.5 48t-16 47.5
t-20 46.5t-24.5 42.5t-27.5 37.5q-15 17 -31.5 32t-35.5 28v67q13 -5 24.5 -11t22.5 -14q11 -7 22.5 -16.5t21.5 -20.5t19 -22.5t18 -22.5q5 -6 9 -12t8 -11l8 -12l8 -12q0 -1 0.5 -2t1.5 -2v-1.5t1 -0.5v-1.5v-0.5v-0.5t1 -0.5v-1v0q0 -1 0.5 -1h1.5v-0.5t1 -0.5v-1v0
q0 -1 0.5 -1.5t1.5 -0.5q8 -16 15.5 -31.5t13.5 -31.5l6 -16l6 -16q3 -9 5.5 -17t4.5 -16q4 -16 6.5 -33.5t4.5 -34.5q2 -18 3.5 -36t1.5 -36t-1.5 -36t-3.5 -36q-3 -18 -6 -35.5t-8 -34.5q-5 -18 -10.5 -34.5t-12.5 -33.5q-7 -16 -14.5 -31.5t-16.5 -29.5v-1.5t-1 -0.5
q0 -1 -0.5 -1.5t-0.5 -1.5l-2 -2t-1 -2q-1 -1 -1.5 -2.5t-1.5 -3.5l-2 -2t-1 -2q-2 -3 -4 -5t-3 -4q-1 -1 -1.5 -2t-1.5 -1q-1 -1 -1.5 -2t-1.5 -2q-7 -10 -14.5 -19.5t-15.5 -18.5q-4 -5 -8 -9.5t-9 -9.5q-4 -4 -8 -9t-9 -9q-10 -8 -19 -15.5t-18 -13.5q-10 -6 -19.5 -10.5
t-19.5 -7.5v-1v0v0z" />
    <glyph glyph-name="asterisk" unicode="*" horiz-adv-x="361" 
d="M306 633v-51h-85l45 -88l-40 -28l-45 90l-45 -90l-40 28l45 88h-87v51h87l-45 90l40 28l45 -90l45 90l40 -28l-45 -90h85v0v0v0z" />
    <glyph glyph-name="plus" unicode="+" horiz-adv-x="515" 
d="M225 341v213h64v-213h182v-76h-182v-216h-64v216h-182v76h182v0v0v0z" />
    <glyph glyph-name="comma" unicode="," 
d="M77 -67l75 193h63l-75 -193h-63v0v0v0z" />
    <glyph glyph-name="hyphen" unicode="-" horiz-adv-x="282" 
d="M26 334h230v-67h-230v67v0v0v0z" />
    <glyph glyph-name="period" unicode="." 
d="M85 0v126h63v-126h-63v0v0v0z" />
    <glyph glyph-name="slash" unicode="/" horiz-adv-x="371" 
d="M34 -128l245 867h58l-247 -867h-56v0v0v0z" />
    <glyph glyph-name="zero" unicode="0" horiz-adv-x="470" 
d="M25 281v192q0 11 0.5 22.5t1.5 22.5t2 22.5t3 21.5t4.5 20t6.5 20q4 11 8.5 20.5t10.5 19.5q1 1 1.5 2t1.5 2q0 1 0.5 1.5l1.5 1.5l0.5 0.5t0.5 1.5t1 2l2 2q1 2 1.5 3.5t1.5 2.5q8 11 16 20t17 17t19 15t21 13q10 5 21 9.5t22 7.5t22.5 4.5t23.5 1.5h7.5t6.5 -1
q7 0 14.5 -1t13.5 -3q11 -3 21.5 -6.5t20.5 -8.5q8 -4 15 -8.5t13 -9.5q2 -2 4.5 -3.5t4.5 -3.5q9 -7 17.5 -15.5t16.5 -18.5t14.5 -21.5t11.5 -22.5q5 -12 9.5 -24t7.5 -25q1 -3 1.5 -6.5t0.5 -6.5q2 -9 3.5 -19t2.5 -20q2 -13 3 -26.5t1 -27.5v-190q0 -15 -0.5 -28.5
t-1.5 -27.5q0 -4 -0.5 -8.5t-1.5 -9.5q-1 -9 -1.5 -17.5t-2.5 -16.5q-1 -13 -4.5 -25.5t-8.5 -24.5t-11 -24t-14 -23q-8 -12 -17 -22t-18 -18q-9 -9 -18.5 -16t-19.5 -12q-6 -3 -11.5 -5t-10.5 -3t-10.5 -3t-11.5 -3q-6 -2 -12 -3t-11 -2q-6 0 -12 -0.5t-12 -0.5
q-12 0 -24 1.5t-23 3.5q-11 3 -21.5 6t-20.5 8t-20.5 12t-19.5 14q-8 8 -16.5 17.5t-16.5 20.5t-15 23t-12 25q-5 12 -8.5 24.5t-5.5 25.5t-3.5 26.5t-2.5 26.5q-1 14 -1.5 28t-0.5 29v2v0v0zM383 293v163v2.5v2.5v2v2v1v2q-1 2 -1 4v4v4v4v4v4q-1 2 -1 4v4v4v4q-1 2 -1 4v4
q-1 3 -1 6v6q-1 3 -1.5 6t-0.5 6q-1 2 -2 5t-1 6t-0.5 6t-1.5 6q-1 6 -3 11.5t-4 10.5t-4.5 10.5t-4.5 9.5q-4 8 -9.5 14.5t-11.5 12.5q-5 6 -11.5 11.5t-13.5 10.5t-14.5 8.5t-15.5 6.5q-7 3 -15 5t-16 3v0v0h-1v0h-1.5t-0.5 1h-1.5h-0.5h-1v0h-2h-2h-1.5h-1.5h-1.5h-1.5
h-1v0q-1 -1 -2 -1h-1h-1.5h-1.5h-0.5h-1.5h-1.5h-0.5q-1 -1 -1.5 -1h-0.5h-1.5h-1.5q-8 -1 -16 -4l-16 -6q-4 -1 -8 -3t-7 -4q-4 -3 -8 -5t-8 -5l-14 -12t-12 -13q-6 -7 -10.5 -14.5t-8.5 -15.5q-1 -2 -2 -4.5t-1 -4.5q-1 -2 -2 -4.5t-2 -4.5q-1 -4 -2.5 -9.5t-2.5 -10.5
q0 -3 -0.5 -5.5t-1.5 -4.5q-1 -3 -1.5 -5.5t-0.5 -5.5q-1 -5 -1.5 -10.5t-1.5 -10.5v-4v-4q-1 -2 -1 -4v-4q-1 -4 -1 -7.5v-7.5v-7.5v-7.5v-7.5v-6.5v-161v-8.5v-9.5v-8v-8v-4v-4v-5v-4q0 -4 0.5 -8t1.5 -8q0 -7 0.5 -13.5t1.5 -12.5q1 -7 2.5 -13.5t2.5 -12.5q2 -7 3.5 -13
t3.5 -12t5 -11.5t6 -10.5q5 -10 11 -18t13 -15q6 -7 13.5 -12t14.5 -9q8 -4 15.5 -7.5t16.5 -5.5t18 -3t19 -1t19 1t18 4q9 2 18 6t17 9t15.5 12t14.5 14q2 3 4 5.5t4 5.5q4 5 8.5 11.5t7.5 13.5q1 2 1.5 3.5t0.5 2.5q1 3 2.5 6.5t1.5 6.5q1 2 1.5 3.5t0.5 2.5q1 4 2.5 7.5
t1.5 7.5q1 3 1.5 5.5t1.5 5.5q0 2 0.5 5t1.5 6q0 6 0.5 12t1.5 12v4.5v4.5v4t1 5v4v4v4.5v4.5v4v4v4t1 4v4v4v4v4v2v0v0z" />
    <glyph glyph-name="one" unicode="1" horiz-adv-x="470" 
d="M238 0v672h-107v67h169v-739h-62v0v0v0z" />
    <glyph glyph-name="two" unicode="2" horiz-adv-x="470" 
d="M28 0v66l239 272h1.5t1.5 1l1.5 1.5l1.5 1.5q0 1 1 1.5t2 1.5l0.5 0.5t0.5 1.5l0.5 0.5l0.5 0.5q2 2 3 3.5t2 2.5l2 2l2 2q0 1 1 2l2 2q8 8 14.5 17t12.5 18q3 5 6.5 9.5t6.5 9.5t6.5 10t6.5 10q6 10 10.5 20.5t7.5 21.5q2 11 4 22.5t2 23.5q0 17 -3 32t-8 28
q-5 14 -12.5 26.5t-18.5 23.5q-10 11 -21.5 19t-23.5 14q-12 5 -24.5 8t-26.5 3q-9 0 -18 -1.5t-17 -3.5q-8 -3 -15.5 -7t-15.5 -9t-15.5 -11t-12.5 -14q-7 -7 -12 -15l-10 -16q0 -1 -1 -2.5t-1 -3.5q-1 0 -1 -1v-1q-1 -3 -2 -5t-1 -4l-2 -4l-2 -4q0 -3 -0.5 -5t-0.5 -4
q-1 -4 -2 -8.5t-2 -9.5q-1 -4 -1.5 -8.5t-0.5 -9.5v-2.5v-3.5v-2.5v-3.5v-2.5v-3.5v-2.5v-3.5v-1.5v-0.5v0v0v-1.5v-0.5v0v0v-1v0v-1.5v-0.5v-1.5v-0.5l-63 2v0.5v1.5v1.5v1.5v2v2v2v2q0 25 3 48t10 44q8 21 18.5 40t24.5 36t30 29.5t34 21.5q18 8 38.5 12.5t42.5 4.5
q7 0 13.5 -0.5t12.5 -1.5q3 -1 6.5 -1t6.5 -1q9 -1 18 -4t17 -7t16.5 -9t15.5 -11q6 -4 10.5 -9t9.5 -10l5.5 -5.5t4.5 -5.5q7 -8 13 -17t11 -18t10 -18.5t9 -19.5q5 -10 7.5 -20.5t4.5 -21.5q2 -10 3.5 -21.5t1.5 -22.5q0 -19 -2.5 -36t-6.5 -32q-4 -16 -9.5 -30t-13.5 -27
q-7 -13 -15.5 -25t-17.5 -24t-18.5 -24t-19.5 -23l-1.5 -1.5l-1.5 -1.5t-1 -1.5v-1.5q-1 -1 -2 -1.5t-1 -1.5l-1.5 -1.5t-1.5 -0.5q-1 -1 -2 -2.5t-3 -3.5q-1 -1 -1.5 -2t-1.5 -2l-195 -216h312v-67h-398v0v0v0z" />
    <glyph glyph-name="three" unicode="3" horiz-adv-x="470" 
d="M133 555h-63q0 20 2.5 38.5t8.5 35.5q5 17 13.5 33t19.5 30t24 25t27 18t30.5 10.5t35.5 3.5q17 0 31.5 -3.5t28.5 -10.5t27 -17.5t24 -24.5t19.5 -29t13.5 -32q6 -16 9 -34t3 -38q0 -12 -1 -22.5t-3 -20.5q-3 -10 -6 -19t-7 -17t-9.5 -15.5t-10.5 -15.5l-4.5 -4.5
t-4.5 -5.5q-4 -5 -8.5 -9.5l-9.5 -9.5q11 -7 21.5 -15t20.5 -18t18.5 -22t15.5 -26t12 -28.5t9 -28.5q4 -15 6 -30t2 -30q0 -25 -3.5 -47.5t-11.5 -43.5t-19 -40.5t-26 -36.5q-14 -17 -30 -30t-34 -21q-18 -7 -37.5 -11.5t-40.5 -4.5t-40.5 4.5t-37.5 11.5q-18 8 -33.5 21.5
t-29.5 31.5q-15 17 -25.5 36.5t-18.5 40.5q-7 21 -10 43.5t-3 46.5v0v0v0.5v1.5v0v1v0v0v0.5v1.5l62 2q0 -7 0.5 -14t1.5 -13l2 -12l2 -12q0 -6 1.5 -12t4.5 -12q2 -6 4 -11.5t6 -10.5q5 -9 9.5 -16.5t11.5 -14.5q6 -7 13 -13.5t14 -11.5q8 -6 15.5 -10t15.5 -7t16 -4t17 -1
q14 0 27.5 3t26.5 9t24.5 15t21.5 21q11 12 18.5 25.5t12.5 28.5t7.5 31t2.5 33q0 13 -2 25t-5 24q-4 12 -8.5 23.5t-10.5 22.5q-7 11 -15 20t-16 16q-8 8 -17 13.5t-19 9.5q-2 0 -3.5 0.5t-3.5 1.5q-2 0 -3.5 0.5t-3.5 1.5q-2 0 -3.5 0.5t-3.5 1.5q-2 0 -3.5 0.5t-3.5 0.5
h-3.5t-3.5 1h-2.5h-3.5h-4t-3 1h-3.5h-3.5h-1.5h-0.5v0v0h-1.5h-0.5h-1.5h-0.5h-1.5h-0.5v0v1h-1.5h-0.5v0v0h-1v0h-1.5h-0.5v0v0v0v0h-1v0v0v0h-1v0h-1.5h-0.5h-1.5h-0.5v0v0h-1v0h-1.5h-0.5h-1.5h-0.5v0v0h-1v0v0v0h-1v0h-1.5h-0.5h-1.5h-0.5v0v0v68l21 -2q11 -1 21.5 0
t20.5 5q11 3 20.5 8t18.5 12q8 7 15 16t11 20q5 11 7 24t2 29q0 12 -1.5 23.5t-5.5 21.5t-9 19t-13 17q-7 8 -14.5 13.5t-16.5 9.5t-18.5 6t-19.5 2q-11 0 -21 -2.5t-18 -7.5q-9 -4 -16.5 -11.5t-12.5 -17.5q-7 -10 -12 -20t-7 -21q-3 -10 -4.5 -21.5t-1.5 -23.5v2v0v0z" />
    <glyph glyph-name="four" unicode="4" horiz-adv-x="470" 
d="M328 0v135h-318v67l304 537h77v-537h56v-67h-56v-135h-63v0v0v0zM328 202v435l-244 -435h244v0v0v0z" />
    <glyph glyph-name="five" unicode="5" horiz-adv-x="470" 
d="M56 375l57 364h283v-67h-232l-32 -204q3 2 6 3.5t6 3.5q3 1 6.5 3t6.5 3q6 3 12.5 6t13.5 5t13.5 4t13.5 3q8 1 14.5 1.5t13.5 0.5q23 0 43 -5t39 -15t36 -24t32 -33t26.5 -40t18.5 -44q8 -22 11.5 -46t3.5 -50t-3.5 -50.5t-11.5 -47.5q-7 -22 -18.5 -43t-26.5 -40
t-32 -34t-36 -24q-19 -7 -39.5 -12t-42.5 -5t-42.5 4.5t-40.5 11.5q-19 8 -36 21.5t-31 31.5q-15 17 -27 36.5t-20 41.5t-13 46t-6 49l63 2q0 -19 3.5 -36t8.5 -32q6 -15 14.5 -29t18.5 -27q11 -13 22 -23t24 -16q13 -7 27.5 -10t30.5 -3t31 3t29 10q13 7 25.5 17.5
t22.5 24.5q11 14 19.5 29.5t12.5 31.5q5 17 8 34t3 36q0 18 -3 36t-8 34q-4 17 -12 32t-19 29t-23 25t-26 18q-13 7 -28 10.5t-31 3.5q-10 0 -19.5 -1.5t-17.5 -4.5q-9 -3 -18 -7t-17 -9l-16 -12t-15 -13t-14 -15t-12 -16l-50 23v0v0v0z" />
    <glyph glyph-name="six" unicode="6" horiz-adv-x="470" 
d="M250 739h73l-148 -260q5 2 9 4.5t8 4.5q2 1 4.5 2t4.5 2q2 0 4.5 1t4.5 2q5 1 9.5 1.5t9.5 1.5t10.5 1.5t9.5 0.5q21 0 40.5 -5t37.5 -15t34 -25t30 -35t25 -41t18 -43t10.5 -44.5t4.5 -45.5v-1.5v-0.5v0v0v0v0v0v0v-1v0v0v0v-2.5v-3.5v-2v-2v-1.5v-0.5v-1.5v-0.5
q-1 -1 -1 -2v-1v-1.5v-0.5l-2 -22t-4 -22q-2 -10 -5 -20.5t-7 -21.5q-4 -10 -9 -20.5t-10 -19.5t-11 -18t-12 -17q-8 -10 -16.5 -18t-17.5 -16q-9 -7 -18 -13t-19 -11q-5 -2 -10 -3.5t-10 -2.5t-10 -3t-10 -3q-6 -1 -11.5 -2t-10.5 -2q-5 0 -10.5 -0.5t-11.5 -0.5
q-22 0 -42.5 5t-39.5 12q-19 9 -36 23.5t-32 33.5q-16 19 -27.5 40t-19.5 43q-7 23 -11 47t-4 50q0 12 0.5 24t1.5 23q2 11 4 21t5 20q2 10 5.5 19.5t7.5 18.5q2 5 4 9.5t5 9.5q2 4 4 9t4 9t4.5 8t4.5 8q1 2 2.5 4.5t2.5 4.5t2.5 4.5t2.5 4.5q3 4 5.5 8.5t4.5 8.5q2 2 3 4.5
t3 4.5q1 2 2.5 4.5t2.5 5.5l148 264v0v0v0zM234 431q-16 -1 -30.5 -5t-28.5 -11q-13 -7 -25 -16.5t-23 -23.5q-10 -13 -18.5 -28t-13.5 -31q-6 -16 -8.5 -33.5t-2.5 -35.5q0 -19 2.5 -37t7.5 -35q5 -16 13 -32t18 -30q11 -14 23 -24.5t26 -18.5q14 -7 29 -10.5t31 -3.5t31 3
t28 10q14 7 26 17.5t23 24.5t19.5 29t13.5 31q5 17 8 34t3 36t-3 36.5t-8 33.5q-5 17 -13 32t-19 29t-23 25t-26 18t-29 10.5t-31 3.5v2v0v0z" />
    <glyph glyph-name="seven" unicode="7" horiz-adv-x="470" 
d="M91 0l259 672h-296v67h362v-67l-257 -672h-68v0v0v0z" />
    <glyph glyph-name="eight" unicode="8" horiz-adv-x="470" 
d="M141 413q-9 5 -17 11t-15 13q-7 8 -12.5 16.5t-10.5 18.5q-4 10 -7.5 20.5t-5.5 20.5q-3 11 -4 22.5t-1 23.5q0 21 3 40t9 36q7 17 16 32.5t22 28.5q12 13 25.5 22.5t28.5 16.5t31.5 10.5t34.5 3.5q17 0 33 -3.5t30 -10.5t27.5 -18t25.5 -25q11 -14 20 -30t16 -33
q5 -17 8.5 -36t3.5 -39q0 -11 -1.5 -22t-4.5 -22q-2 -10 -5.5 -20.5t-8.5 -20.5t-11 -18.5t-13 -16.5q-7 -7 -14.5 -12.5t-16.5 -10.5q12 -7 22.5 -15t20.5 -18t19 -21t16 -25q7 -13 12.5 -27.5t9.5 -28.5q4 -15 6 -30t2 -30q0 -25 -4 -47.5t-12 -42.5q-7 -21 -18.5 -39
t-26.5 -35q-15 -16 -31.5 -28.5t-34.5 -20.5q-18 -7 -36.5 -11t-39.5 -4q-20 0 -39 4t-36 11q-17 8 -33 20.5t-31 29.5t-25.5 35t-17.5 38q-8 20 -11.5 42.5t-3.5 46.5v4.5v4.5v4.5t1 5.5v4.5t1 5.5q0 2 0.5 4.5t1.5 5.5q2 12 5 24t7 24q5 12 10.5 23.5t12.5 22.5t14.5 21
t15.5 17q8 8 17.5 14.5t19.5 10.5v2v0v0zM233 373q-14 -1 -27.5 -4.5t-24.5 -9.5q-13 -6 -23.5 -15t-20.5 -20q-10 -12 -17.5 -25t-12.5 -27q-4 -14 -6.5 -29t-2.5 -32q0 -16 2.5 -31t6.5 -29q5 -13 13 -26t18 -24t20.5 -19.5t22.5 -14.5t25 -8.5t26 -2.5q14 0 27.5 2.5
t26.5 8.5q12 6 23.5 14.5t21.5 20.5q11 11 18.5 24t12.5 27t7.5 30t2.5 33t-3 32.5t-8 28.5q-5 14 -12.5 26.5t-18.5 23.5q-10 11 -22 19t-24 14q-12 5 -24.5 8t-26.5 3v2v0v0zM238 680q-11 -1 -21.5 -3.5t-18.5 -6.5q-9 -4 -17.5 -10t-16.5 -14t-14.5 -17t-10.5 -20
q-4 -10 -6 -21.5t-2 -24.5t2 -25t6 -23t10 -21t13 -18q8 -9 16 -15t18 -11q9 -4 19 -6t22 -2q5 0 9.5 0.5t9.5 1.5q4 1 9 2.5t9 3.5q9 5 17.5 11.5t15.5 15.5q8 8 13.5 18t9.5 20q4 11 6.5 22t2.5 23t-2 23.5t-6 21.5q-4 11 -9.5 20t-12.5 18q-7 8 -15.5 15t-17.5 11
q-9 5 -18.5 7t-19.5 2v2v0v0z" />
    <glyph glyph-name="nine" unicode="9" horiz-adv-x="470" 
d="M220 0h-73l148 259q-2 -3 -4.5 -4.5t-4.5 -3.5q-2 -1 -4.5 -2.5t-4.5 -2.5t-4.5 -2t-5.5 -2l-4 -2t-4 -1q-4 -1 -9 -2.5t-10 -1.5q-5 -1 -10 -1h-10q-22 0 -41.5 4.5t-37.5 14.5q-17 10 -33 25t-30 35t-24.5 40.5t-18.5 42.5q-7 22 -10.5 45t-3.5 47v0v0v0v1v0v0v0v0v0v0
v0.5v1.5v0.5v1.5v0.5v1.5v0v1v0v0v0.5v1.5v0v0v0.5v1.5v12t1 12q1 5 2 11l2 12q2 11 5.5 22.5t7.5 22.5q3 8 6 15l6 14q1 3 3 6.5t3 6.5q5 10 11.5 19t13.5 18q8 10 16 18.5t17 15.5t18.5 13t19.5 11q6 3 12.5 5.5t13.5 5.5q3 1 6.5 2t6.5 2q11 2 22 3.5t23 1.5q22 0 42 -5
t39 -15t36 -24t33 -33t27.5 -39.5t18.5 -43.5q8 -22 12 -46t4 -50q0 -8 -0.5 -16.5t-1.5 -15.5q0 -4 -0.5 -7.5t-0.5 -7.5q-1 -11 -3.5 -21.5t-5.5 -20.5t-6 -19.5t-7 -18.5q-2 -4 -4 -8.5t-4 -9.5q-2 -4 -4 -8.5t-4 -9.5q-1 -2 -2.5 -4.5t-2.5 -4.5t-2 -4.5t-3 -4.5
q-2 -4 -4.5 -8t-4.5 -8q-3 -4 -5.5 -8.5t-4.5 -9.5q-1 -2 -2.5 -4.5t-2.5 -4.5q-2 -2 -3 -4.5t-3 -4.5l-148 -260v0v0v0zM84 496q-1 -19 1.5 -36.5t8.5 -34.5q5 -16 14 -31.5t20 -29.5t22.5 -24.5t24.5 -17.5t26.5 -10.5t28.5 -3.5v0v0h0.5h1.5v0v0v0h1v0v0v0h1v0v0h0.5h1.5
h0.5h1.5v0h1v0h1v0v0h0.5h1.5v0v0v0h1v0v0q15 0 29 3t27 10q13 6 24.5 16.5t21.5 23.5q10 14 17.5 28t12.5 30t8 33t3 35q0 19 -3 37t-8 34q-5 17 -13 32.5t-18 29.5q-11 14 -23 25t-26 18q-13 8 -27.5 11.5t-31.5 3.5q-16 0 -31 -3.5t-29 -10.5q-13 -7 -25.5 -17t-23.5 -24
t-19.5 -29t-13.5 -31q-6 -16 -8.5 -33.5t-1.5 -35.5v2v0v0z" />
    <glyph glyph-name="colon" unicode=":" 
d="M85 0v126h63v-126h-63v0v0v0zM85 384v126h63v-126h-63v0v0v0z" />
    <glyph glyph-name="semicolon" unicode=";" 
d="M34 -67l75 193h63l-75 -193h-63v0v0v0zM109 384v126h63v-126h-63v0v0v0z" />
    <glyph glyph-name="less" unicode="&#x3c;" horiz-adv-x="515" 
d="M122 301l352 -191v-73l-433 232v64l433 232v-73l-352 -191v0v0v0z" />
    <glyph glyph-name="equal" unicode="=" horiz-adv-x="515" 
d="M471 241v-75h-428v75h428v0v0v0zM471 436v-75h-428v75h428v0v0v0z" />
    <glyph glyph-name="greater" unicode="&#x3e;" horiz-adv-x="515" 
d="M40 110l352 191l-352 191v73l433 -232v-64l-433 -232v73v0v0v0z" />
    <glyph glyph-name="question" unicode="?" horiz-adv-x="502" 
d="M224 0v126h63v-126h-63v0v0v0zM115 508h-60v21v0.5v1.5v2v2v2v2v2t1 2q0 10 1.5 19.5t4.5 18.5q1 5 2 9.5t2 9.5q2 4 3.5 9t3.5 9q5 9 9.5 17.5t8.5 16.5q5 8 10.5 15.5t11.5 14.5q7 8 14.5 15.5t15.5 13.5t17 11.5t19 9.5q5 2 9.5 3.5t9.5 3.5q4 1 9 2.5t9 2.5l10 2
l10 2q5 0 10 0.5t10 0.5q20 0 39 -4.5t36 -12.5t32 -20t28 -28q14 -16 24 -34t17 -38t10.5 -42t3.5 -46q0 -14 -2 -27t-5 -25t-7.5 -23t-10.5 -21q-3 -5 -6.5 -9.5t-6.5 -9.5q-3 -4 -6.5 -8.5t-6.5 -9.5q-4 -4 -7.5 -8.5t-6.5 -9.5q-4 -4 -7.5 -8.5t-7.5 -8.5t-7.5 -8.5
t-7.5 -8.5q-3 -5 -6.5 -9t-6.5 -9q-4 -4 -7.5 -9t-6.5 -9q-3 -5 -6 -9.5t-6 -9.5q-6 -10 -11 -20.5t-8 -21.5q-3 -12 -4.5 -24.5t-1.5 -26.5l-63 2v-1v0v0v1v0v0v0.5v1.5v0v0v0.5v1.5v0v0v0.5v1.5q0 15 1.5 29.5t4.5 27.5q3 14 8 26.5t11 24.5q7 12 14 23.5t14 21.5
q8 11 17 21l18 20l1.5 1.5l1.5 1.5l1.5 1.5l1.5 1.5q0 1 1 1.5t2 1.5l1.5 1.5t0.5 1.5q2 2 3 3.5t2 2.5l3.5 3.5l2.5 2.5l10 12t9 12t7.5 12.5t7.5 13.5q4 6 6.5 13.5t4.5 15.5t3 17t1 19q0 16 -2.5 30.5t-7.5 27.5t-12.5 25t-18.5 22q-10 11 -21 18.5t-22 12.5
q-12 5 -24 7.5t-25 2.5t-26.5 -3t-25.5 -9q-13 -6 -23.5 -15t-20.5 -21q-10 -13 -17.5 -26.5t-12.5 -27.5q-4 -14 -6.5 -29t-2.5 -31v-1.5v-0.5v0v0v-1v0v-1.5v-0.5v0v0v-1.5v-0.5v0v0v-1v0v-1.5v-0.5v0v0v2v0v0z" />
    <glyph glyph-name="at" unicode="@" horiz-adv-x="736" 
d="M612 175l51 1q-10 -23 -23 -43.5t-28 -37.5q-14 -17 -30.5 -32t-36.5 -27q-12 -8 -25.5 -15t-26.5 -12q-6 -3 -12.5 -5t-13.5 -4q-20 -5 -40.5 -8t-41.5 -3q-34 0 -66 6.5t-61 19.5q-29 14 -55.5 35t-49.5 49t-41 59t-29 65t-17 71t-6 77q0 39 6 75.5t18 70.5
q11 33 29.5 63.5t42.5 58.5q23 28 49.5 49t54.5 34q29 14 60 21t65 7q14 0 27.5 -1.5t26.5 -4.5q14 -3 27.5 -7t26.5 -9q13 -6 25.5 -13t23.5 -15t22.5 -17t22.5 -20q11 -12 20.5 -24t18.5 -25q8 -13 15 -27t13 -28t10.5 -29t6.5 -32q2 -16 4 -33t2 -34q0 -8 -0.5 -16.5
t-1.5 -17.5q0 -4 -0.5 -8t-0.5 -8q-1 -12 -4 -24t-6 -23q-3 -12 -7 -23t-9 -22t-10.5 -21.5t-10.5 -20.5q-7 -11 -14.5 -21.5t-15.5 -19.5q-7 -10 -16 -19t-19 -17t-19.5 -14t-20.5 -11q-10 -4 -21.5 -6t-23.5 -2h-1.5h-1.5h-2h-2v0v0h-1v0h-1.5t-0.5 1h-1.5h-0.5h-1v0
q-5 1 -10 2.5t-10 2.5q-4 2 -8.5 4.5t-8.5 5.5t-8 7t-6 8q-4 5 -6 10.5t-4 11.5q-4 -5 -8 -9.5t-9 -8.5q-3 -2 -5.5 -4t-4.5 -4q-2 -1 -4.5 -2.5t-5.5 -3.5q-6 -4 -11.5 -6.5t-10.5 -4.5q-2 -1 -3.5 -1.5t-3.5 -1.5q-4 -1 -7.5 -1.5t-6.5 -1.5h-0.5h-0.5q-1 -1 -1.5 -1h-0.5
h-2h-1q-1 -1 -1.5 -1h-1.5h-1.5h-1.5h-2h-3h-2h-3q-13 0 -25.5 2.5t-23.5 8.5q-10 6 -19.5 14.5t-17.5 19.5t-14.5 23.5t-10.5 25.5t-6 27t-2 30v9.5v8.5q0 5 0.5 9.5t1.5 8.5q1 5 1.5 9.5t1.5 8.5q0 5 1 9.5t2 9.5q5 22 11.5 43t15.5 40q9 20 20 39t25 38q14 18 29 31.5
t32 22.5t34.5 14t37.5 5q7 0 14 -1.5t14 -3.5q3 -1 6.5 -2.5t7.5 -2.5q4 -2 7.5 -3.5t6.5 -3.5q2 -1 4 -3t4 -3q4 -4 8.5 -7.5t7.5 -7.5q5 -6 9 -13.5t7 -15.5l13 49h57l-86 -305q-1 -1 -1.5 -2.5t-0.5 -2.5v-2v-2l-1.5 -1.5t-0.5 -1.5v-0.5v-0.5q-1 -1 -1 -1.5v-0.5v-1.5
v-0.5v-1v0q-1 -1 -1 -1.5v-0.5v-1.5v-0.5v-1.5v-0.5v0v0v-1v0q-1 -1 -1 -1.5v-0.5v0v0v-1v0q-1 -2 -1.5 -4t-0.5 -4q-1 -1 -1.5 -2.5t-0.5 -3.5v-3.5v-3.5v-2.5v-2.5v-7t1 -5q1 -3 2.5 -5t2.5 -4q2 -2 4.5 -3.5t4.5 -2.5t4.5 -1.5t5.5 -0.5h3h2h3t2 1h3t2 1h2t2 1l1 0.5
t2 0.5t1.5 0.5t1.5 0.5q1 1 2.5 1.5t3.5 1.5q1 1 2.5 2t3.5 2l1.5 1.5t1.5 0.5q1 1 1.5 1t1.5 1t2.5 2t3.5 2q2 2 4 3.5t4 3.5q5 4 9 8l8 8l2.5 2.5l2.5 2.5q2 3 4.5 6t5.5 6q0 1 1 2l2 2l1.5 1.5t0.5 1.5t0.5 1.5l1.5 1.5q0 1 0.5 1.5l1.5 1.5l0.5 1t1.5 2v0.5t1 1.5
q0 1 0.5 1.5l1.5 1.5q4 7 7.5 14.5t7.5 15.5t7 16t5 17q2 6 3.5 11.5t2.5 10.5q1 3 1.5 6t1.5 6q2 8 3.5 17t2.5 18v2v2v2v2v2v2v2v2v2v2v2t1 2v2v2v2v2q0 31 -4.5 58.5t-14.5 51.5t-24.5 45t-34.5 39q-19 18 -39.5 31.5t-42.5 22.5t-45 13.5t-47 4.5q-30 0 -57.5 -6.5
t-52.5 -18.5q-25 -13 -47 -31.5t-42 -43.5t-35.5 -52.5t-25.5 -57.5t-15 -61.5t-5 -65.5t5.5 -66t15.5 -61t25.5 -55.5t36.5 -50.5q20 -24 43 -42t48 -30t51.5 -18t56.5 -6q17 0 32.5 2.5t31.5 6.5q5 2 10.5 3.5t10.5 3.5q11 4 21.5 9.5t20.5 11.5q15 9 28.5 19.5t26.5 23.5
t24 27.5t21 30.5v2v0v0zM314 205q2 0 4.5 -0.5t4.5 -0.5q5 0 9.5 1t8.5 3q7 3 13 7.5t12 10.5l7.5 7.5t6.5 7.5q2 2 3.5 4.5t3.5 4.5q5 6 9 12.5t8 13.5q0 1 0.5 2t1.5 2q0 1 0.5 2t1.5 2v0.5v1.5l0.5 0.5l1.5 1.5v0.5v1.5l0.5 0.5l1.5 1.5v0.5t1 1.5v0.5v1.5t0.5 2.5
t1.5 2.5v0l1 1v0.5v0.5l0.5 1t1.5 2v0.5v1.5v0.5t1 1.5v0.5v0.5l2 4l2 4q0 2 1 4.5t2 4.5q2 5 3.5 10t3.5 10t3.5 10t2.5 10q2 5 3.5 10t2.5 10q1 2 1.5 4.5t0.5 5.5q0 2 0.5 4.5t1.5 4.5q2 5 2.5 10t1.5 10q0 5 0.5 9.5t1.5 8.5v4.5t1 4.5v4.5v4.5q0 7 -1 13.5t-3 13.5
l-6 12t-7 12q-4 5 -9.5 9t-10.5 7q-4 3 -10 4.5t-13 1.5q-13 0 -24 -3.5t-21 -9.5q-11 -6 -21 -15t-19 -21q-8 -12 -16 -24.5t-14 -26.5q-7 -13 -11.5 -27.5t-9.5 -28.5q-1 -6 -2.5 -11.5t-2.5 -10.5q-1 -6 -2 -11.5t-2 -10.5q-1 -6 -1.5 -11.5t-0.5 -10.5q-1 -5 -1 -9.5
v-9.5q0 -9 1 -17.5t3 -16.5t5.5 -15.5t7.5 -14.5t9 -12.5t11 -8.5q7 -4 14 -5.5t15 -1.5v2v0v0z" />
    <glyph glyph-name="A" unicode="A" horiz-adv-x="629" 
d="M9 0l271 739h70l269 -739h-68l-91 248h-292l-91 -248h-68v0v0v0zM192 315h244l-121 339l-123 -339v0v0v0z" />
    <glyph glyph-name="B" unicode="B" horiz-adv-x="487" 
d="M64 0v739h147q5 -1 9.5 -1.5t9.5 -0.5q4 -1 9 -1.5t9 -0.5q9 -1 18 -1.5t19 -2.5q5 -1 9 -2t9 -2q4 -2 8.5 -3.5t8.5 -3.5q9 -4 17.5 -9t16.5 -11q8 -7 15.5 -14.5t14.5 -16.5l4 -6l4 -6q4 -6 8.5 -12.5t7.5 -13.5q5 -10 8.5 -21.5t6.5 -22.5q2 -11 3.5 -22.5t1.5 -23.5
t-1.5 -23.5t-3.5 -22.5l-6 -20t-8 -19q-1 -2 -2.5 -4.5t-2.5 -4.5q-4 -7 -8 -13t-9 -12q-4 -6 -10 -11.5t-11 -10.5q-2 -2 -4 -3.5t-4 -3.5q12 -6 23 -14t21 -17q9 -9 17.5 -19.5t15.5 -22.5q6 -13 11 -26t9 -27q3 -14 5 -29t2 -31q0 -13 -1.5 -25t-3.5 -24q-3 -12 -6.5 -24
t-8.5 -23q-5 -12 -11.5 -22t-13.5 -19t-15.5 -17t-16.5 -15q-1 0 -1.5 -0.5l-0.5 -0.5l-1.5 -1.5t-1.5 -0.5l-1.5 -1.5l-1.5 -1.5t-2 -1.5t-2 -0.5q-1 -1 -2 -1.5t-2 -0.5q-4 -3 -8.5 -5.5t-9.5 -4.5l-4 -2l-4 -2q-3 -1 -5 -1.5t-4 -1.5q-4 -1 -8.5 -2.5t-8.5 -2.5t-8.5 -2
t-9.5 -1q-4 -1 -9 -1.5t-9 -0.5q-5 -1 -9.5 -1h-9.5h-9.5h-9.5h-9.5h-9.5h-1.5h-0.5h-1v0v0v0h-1v0h-1.5h-0.5h-1.5h-0.5h-1v0v0v0h-1v0h-1.5h-0.5h-148v0v0v0zM127 67h77l1.5 -1.5t1.5 -0.5h1.5h0.5h2h2h1.5h1.5h0.5h1.5h0.5h1.5v0h1v0h1h0.5h1.5h0.5h1.5v0v0h0.5h1.5h3.5
h2.5h3.5h3.5h3.5h3.5h3t4 1h6.5h7.5q2 0 3.5 0.5t3.5 0.5q5 1 10.5 2t11.5 2q3 0 5.5 1t4.5 1q2 1 4.5 2t5.5 2q5 2 10 4.5t9 5.5t7.5 5.5t6.5 5.5l3.5 3.5l3.5 3.5q5 5 10 11.5t9 13.5t7.5 14.5t6.5 14.5q2 8 3.5 15.5t2.5 15.5v0.5v1.5v0.5t1 1.5v0v1v0.5v1.5v0.5v1.5v0.5
v1.5v0v1v0.5v1.5v0v0v0v0v0v0v0v1v0v0v0v0v0v0v0v0v0v0v0v1v0v0v0v0q0 11 -1.5 22t-3.5 21q-2 11 -6 20.5t-9 18.5q-6 9 -12 16.5t-14 14.5q-7 6 -15 11t-17 9q-4 2 -9 3.5t-10 2.5q-3 1 -6 1.5t-6 1.5q-2 0 -3 0.5t-3 0.5h-2.5t-2.5 1h-3h-3t-4.5 0.5t-4.5 1.5h-2.5h-2.5
h-2.5h-2.5h-2.5t-2.5 1h-3h-2h-1h-1h-2h-2h-2.5t-2.5 1h-3.5h-2.5h-2.5h-2.5h-2.5h-2.5h-3h-3h-4.5h-5.5h-1.5h-0.5v0v0h-1v0h-1.5h-0.5h-1.5h-0.5l-66 2v-289v0v0v0zM127 423h68v-1.5v-0.5h0.5h1.5v0h1v0v0h0.5h1.5h2h2h2h2h2h2h1h2h4.5h4.5h4h4h3h3h2.5h2.5h2t3 1h2.5h3.5
t4.5 0.5t5.5 1.5h2.5t2.5 1q1 0 2.5 0.5t2.5 0.5q5 1 10.5 2.5t9.5 3.5q3 1 5.5 2.5t4.5 2.5q2 2 4.5 3.5t5.5 2.5q5 3 10 7t9 9q5 5 8.5 10.5t7.5 12.5q3 6 6 12.5t5 13.5t3 14.5t2 14.5v0.5v1.5v0.5v1.5v0v1v0v0v0.5v1.5v0v0v0.5v1.5v0v0v0.5v1.5v0.5v1.5v0.5v1.5
q-1 7 -2 13.5t-3 13.5t-5 13.5t-6 13.5q-4 7 -7.5 13t-7.5 11t-9 9.5t-10 8.5q-4 2 -7.5 4.5t-7.5 4.5l-4 2l-4 2q-3 0 -5 1l-4 2q-4 1 -8.5 1.5t-9.5 1.5q-4 1 -8.5 1.5t-9.5 1.5h-2h-2h-1.5t-0.5 1h-2h-1h-1.5h-1.5h-3.5h-3.5h-1.5h-0.5h-1.5h-1.5h-1.5h-0.5v0v0h-1.5
h-0.5h-1.5h-0.5h-1.5h-0.5h-1.5h-1.5q-1 -1 -2 -1h-1h-2h-2h-0.5h-0.5h-0.5h-0.5h-1.5h-1.5l-73 2v-249v0v0v0z" />
    <glyph glyph-name="C" unicode="C" horiz-adv-x="691" 
d="M651 549h-69q-8 14 -17.5 26t-20.5 23q-10 11 -21.5 21t-25.5 18q-13 8 -27 15t-28 12q-13 5 -27.5 8.5t-28.5 4.5h-2h-1h-2h-2h-2h-3h-1.5h-1.5h-2t-1 1h-1.5h-1.5h-1.5h-1.5q-26 0 -51.5 -6t-48.5 -17q-22 -12 -43.5 -29.5t-41.5 -40.5q-19 -23 -34 -48t-24 -52
q-10 -27 -14.5 -56t-4.5 -59q0 -33 4.5 -63t14.5 -58q11 -28 26 -53t35 -48t41.5 -40.5t44.5 -28.5q23 -12 48.5 -17.5t52.5 -5.5q16 0 31.5 2.5t31.5 6.5q15 5 30 11.5t29 16.5q15 9 28.5 19.5t24.5 22.5t22 26t20 30l70 2q-10 -24 -23 -45t-27 -40q-16 -19 -33 -35.5
t-37 -30.5q-19 -14 -39.5 -24.5t-41.5 -17.5q-21 -5 -42.5 -8.5t-43.5 -3.5q-35 0 -67.5 6.5t-61.5 19.5q-29 14 -55.5 34t-50.5 48t-42 59t-29 65q-12 34 -18 71.5t-6 78.5q0 39 6 75.5t18 70.5q11 33 29 63.5t42 58.5t50 49t55 34q29 14 60 21t65 7q6 0 11.5 -0.5
t11.5 -0.5q6 -1 11.5 -1.5t11.5 -1.5q12 -1 24 -4t24 -7q11 -4 22.5 -8.5t21.5 -10.5q11 -6 22 -13t21 -15l0.5 -0.5l0.5 -0.5q0 -1 0.5 -1t1.5 -1q2 -1 2.5 -2t1.5 -1l2 -2l2 -2t2 -1.5t2 -1.5l2 -2l2 -2l2 -2l2 -2l2 -2t3 -1l2 -2l2 -2l10.5 -10.5t9.5 -11.5
q5 -6 10.5 -12t10.5 -13q2 -4 4.5 -7.5t4.5 -6.5q2 -2 3.5 -4t2.5 -4q1 -1 1.5 -2t1.5 -2l2 -4t2 -3q0 -2 1 -3.5t2 -3.5q1 -1 1.5 -2t0.5 -2q1 -1 1 -1.5v-0.5q1 -2 2 -3.5t1 -3.5v-1.5v-1.5t0.5 -1.5l1.5 -1.5v-0.5t1 -0.5v-1.5v-0.5v-0.5t1 -0.5v-1.5v-0.5v2v0v0z" />
    <glyph glyph-name="D" unicode="D" horiz-adv-x="632" 
d="M64 0v739h169q17 -1 33.5 -3t33.5 -4q16 -3 31.5 -6t31.5 -7q11 -3 20.5 -7t19.5 -9q5 -2 10 -4.5t10 -5.5q14 -8 28.5 -18.5t28.5 -23.5t25.5 -27.5t21.5 -30.5q11 -16 20.5 -33t16.5 -36q8 -19 13.5 -37.5t9.5 -38.5q2 -10 3.5 -20t2.5 -19q1 -10 1.5 -20t0.5 -20
q0 -20 -2 -39.5t-5 -38.5q-4 -19 -9 -37t-12 -36t-15 -35t-17 -32q-10 -16 -20.5 -30t-22.5 -27q-7 -7 -14.5 -14t-14.5 -14q-7 -6 -14.5 -11.5t-14.5 -10.5q-16 -10 -31 -16.5t-30 -11.5q-16 -4 -32.5 -7.5t-33.5 -5.5q-11 -1 -22.5 -1.5t-23.5 -1.5h-11.5h-11.5h-174v0v0
v0zM127 67h81q8 0 15.5 -0.5t15.5 -0.5q7 0 15 0.5t15 1.5q15 2 29.5 3.5t28.5 3.5t27.5 7t26.5 12q14 7 27.5 16.5t26.5 22.5q11 11 21.5 23t19.5 25t16.5 27t13.5 30q6 15 10.5 31t7.5 32q3 17 5 33.5t3 34.5q-1 18 -3 35t-5 33q-3 17 -7.5 32t-10.5 30q-6 14 -13.5 28
t-16.5 27q-9 14 -19.5 26t-22.5 23q-13 11 -26.5 20.5t-27.5 16.5q-4 3 -8.5 5t-9.5 4q-9 4 -17.5 6.5t-18.5 4.5q-14 2 -28.5 4t-29.5 3q-9 1 -19.5 1.5t-20.5 1.5h-10h-10l-81 2v-605v0v0v0z" />
    <glyph glyph-name="E" unicode="E" horiz-adv-x="455" 
d="M64 0v739h344v-67h-281v-266h271v-67h-271v-272h281v-67h-344v0v0v0z" />
    <glyph glyph-name="F" unicode="F" horiz-adv-x="412" 
d="M64 0v739h319v-67h-256v-267h247v-67h-247v-338h-63v0v0v0z" />
    <glyph glyph-name="G" unicode="G" horiz-adv-x="741" 
d="M279 341h427q-3 -39 -10.5 -74t-21.5 -67q-13 -32 -32 -60.5t-43 -53.5q-25 -25 -51.5 -44t-54.5 -31q-28 -11 -58 -17t-61 -6q-34 0 -66.5 6.5t-61.5 19.5q-29 14 -56.5 34.5t-52.5 48.5t-43.5 59t-31.5 65q-13 35 -19 72.5t-6 77.5v0.5v1.5v0.5v1.5v0v1v0v0v0.5v1.5v0
v0v0.5v1.5q0 17 2 34.5t6 35.5q3 17 8 34.5t12 34.5q6 17 13.5 32.5t16.5 30.5q9 14 18.5 27.5t20.5 26.5q12 14 25 27t27 23q14 11 28.5 19.5t29.5 15.5q5 2 10.5 4t10.5 4q10 4 20.5 7.5t21.5 5.5q16 3 33 5t34 2q12 0 24 -1t24 -3q11 -2 23 -5t25 -7q11 -4 22.5 -8.5
t22.5 -10.5t22 -13t21 -15l1.5 -1.5l1.5 -1.5l1.5 -1.5t1.5 -0.5q0 -1 0.5 -1h1.5q0 -1 1 -2l2 -2q2 -1 2.5 -1.5l1.5 -1.5l2 -2l2 -2t2.5 -2t2.5 -1l0.5 -0.5t0.5 -1.5l0.5 -0.5l1.5 -1.5q2 -1 2.5 -2t1.5 -2q6 -6 12 -12.5t12 -13.5q3 -4 6 -7.5t6 -6.5q3 -4 5.5 -7.5
t5.5 -7.5l10 -16t9 -16q2 -4 3.5 -8t3.5 -7q1 -4 3 -8t3 -8l-72 2q-7 14 -16.5 27.5t-20.5 25.5t-23.5 22.5t-26.5 19.5q-7 5 -14.5 8.5t-14.5 7.5q-7 3 -14.5 6t-14.5 6q-5 2 -10 3l-10 2q-10 3 -19.5 4.5t-20.5 2.5h-0.5h-1.5h-1.5t-0.5 1h-1.5h-0.5h-1.5h-1.5h-1.5h-0.5
h-1.5h-1.5h-2h-1h-1.5h-1.5h-1.5h-1.5h-0.5h-1.5h-1.5h-1.5q-12 -1 -24 -2.5t-23 -4.5q-12 -3 -24 -7t-23 -9q-3 -1 -6 -2.5l-5 -2.5q-9 -5 -17.5 -9.5t-15.5 -10.5q-10 -7 -20 -16t-18 -19q-10 -10 -18 -22l-16 -24t-15 -25.5t-13 -27.5t-10.5 -28.5t-7.5 -29.5
q-4 -15 -5.5 -30t-1.5 -30v-1.5v-0.5v-1.5v-0.5v-1.5v-0.5v-1.5v-0.5q0 -34 5 -64.5t15 -59.5q11 -28 26 -53t35 -48q21 -22 43 -39t47 -28q24 -11 50.5 -16.5t54.5 -5.5q21 0 41.5 3.5t40.5 10.5q6 3 12.5 5.5t12.5 6.5q13 6 25.5 14.5t24.5 18.5q18 15 33.5 32.5
t27.5 36.5q12 20 21 41.5t15 46.5l-351 2v67v0v0v0z" />
    <glyph glyph-name="H" unicode="H" horiz-adv-x="580" 
d="M64 0v739h63v-325h326v325h62v-739h-62v347h-326v-347h-63v0v0v0z" />
    <glyph glyph-name="I" unicode="I" horiz-adv-x="192" 
d="M64 0v739h63v-739h-63v0v0v0z" />
    <glyph glyph-name="J" unicode="J" horiz-adv-x="409" 
d="M345 739v-531v-2.5v-2.5v-1.5v-1.5q-1 -1 -1 -1.5v-1.5v-1.5v-1.5v-2.5v-3.5v-2.5v-3.5q-1 -3 -1.5 -6t-0.5 -6v-6v-5q-1 -3 -1.5 -6t-0.5 -6v-5.5v-4.5q-1 -3 -1.5 -5.5t-0.5 -4.5q-1 -3 -1.5 -5.5t-0.5 -4.5q-1 -3 -1.5 -6t-0.5 -5q-1 -3 -1.5 -5.5t-1.5 -4.5
q0 -1 -0.5 -1.5l-0.5 -0.5l-1.5 -1.5t-0.5 -1.5v-1.5v-0.5q-1 -1 -1 -1.5v-0.5q-1 -1 -2 -2.5t-1 -3.5q0 -1 -0.5 -1.5l-0.5 -0.5q0 -1 -0.5 -1.5l-0.5 -0.5q0 -1 -0.5 -1.5l-0.5 -0.5l-1.5 -1.5t-0.5 -1.5q-1 -1 -1.5 -2t-0.5 -2q-1 -1 -2 -2.5t-2 -3.5q-1 -1 -1.5 -2
t-0.5 -2q-7 -10 -13.5 -18t-14.5 -15q-3 -2 -5.5 -4t-5.5 -4q-5 -4 -10.5 -7.5t-11.5 -6.5q-9 -3 -18 -5.5t-18 -4.5t-18.5 -3.5t-19.5 -1.5q-17 0 -33 3.5t-30 8.5q-15 5 -28.5 15.5t-25.5 23.5q-12 14 -21 29t-16 31q-6 17 -9.5 35.5t-3.5 38.5l62 2q1 -14 3.5 -26
t6.5 -23q4 -10 10.5 -20t14.5 -18t16.5 -14t18.5 -10q9 -4 19.5 -6t21.5 -2q8 0 15 1t14 4q8 2 14.5 6t12.5 9t11.5 10.5t9.5 12.5q5 7 8.5 14.5t6.5 16.5q1 3 1.5 6t1.5 6q0 3 0.5 6.5t1.5 7.5v3.5t1 3.5v3v4q0 4 0.5 7.5t1.5 7.5v4.5v4.5v4.5v4.5v2v2v2.5v2.5v2v2v2v2v0.5
v1.5v0.5v1.5v0.5v1.5v0.5v1.5v511h63v0v0v0z" />
    <glyph glyph-name="K" unicode="K" horiz-adv-x="502" 
d="M64 0v739h63v-425l290 425h80l-248 -360l248 -379h-78l-210 320l-82 -118v-202h-63v0v0v0z" />
    <glyph glyph-name="L" unicode="L" horiz-adv-x="392" 
d="M64 0v739h63v-672h260v-67h-323v0v0v0z" />
    <glyph glyph-name="M" unicode="M" horiz-adv-x="781" 
d="M64 0v739h97l230 -629l228 629h97v-739h-63v657l-236 -657h-54l-236 657v-657h-63v0v0v0z" />
    <glyph glyph-name="N" unicode="N" horiz-adv-x="629" 
d="M64 0v739h85l352 -613v613h63v-739h-63l-374 650v-650h-63v0v0v0z" />
    <glyph glyph-name="O" unicode="O" horiz-adv-x="738" 
d="M368 751q34 -1 65 -8.5t60 -21.5q29 -13 56 -34t52 -48q25 -28 43.5 -58.5t31.5 -63.5q12 -34 18.5 -70.5t6.5 -76.5t-6.5 -77.5t-18.5 -71.5q-13 -34 -31 -65t-42 -59q-25 -28 -52 -48.5t-56 -34.5q-29 -13 -61 -19.5t-66 -6.5q-33 0 -64 6t-60 19q-29 14 -55.5 34
t-52.5 48q-25 27 -43 57.5t-31 64.5t-19 70.5t-6 76.5t6 77t18 71q12 35 30.5 66t43.5 59q24 28 51 49t56 35t60.5 21t65.5 7v2v0v0zM369 58q28 -1 53.5 4t49.5 16t45.5 28.5t41.5 40.5t34.5 48t24.5 53t15 58.5t5 63.5q0 32 -5 61.5t-16 56.5q-10 27 -25 52.5t-35 47.5
q-20 23 -42 39.5t-45 27.5q-24 11 -49 17t-52 6q-28 0 -54 -6t-49 -17q-25 -12 -46.5 -29t-41.5 -40q-19 -23 -34 -48.5t-25 -53.5t-14.5 -58t-4.5 -62t4.5 -62t14.5 -57q11 -27 26 -51.5t36 -47.5q20 -22 42 -39.5t45 -28.5q24 -11 49.5 -16.5t51.5 -5.5v2v0v0z" />
    <glyph glyph-name="P" unicode="P" horiz-adv-x="503" 
d="M64 0v739h165q5 -1 10.5 -1.5t11.5 -0.5q5 -1 10.5 -1.5t10.5 -0.5q6 -1 11.5 -1.5t10.5 -0.5q5 -1 10.5 -1.5t11.5 -0.5q4 0 7.5 -1t6.5 -2q7 -1 14.5 -3.5t13.5 -5.5q11 -4 20.5 -9.5t18.5 -12.5q11 -7 20 -16t16 -19q8 -10 14.5 -20.5t11.5 -22.5t8.5 -24.5t6.5 -25.5
q2 -13 4 -26.5t2 -27.5q0 -13 -1 -25t-3 -24l-6 -24t-8 -23q-4 -11 -10 -21.5t-12 -19.5q-7 -10 -15 -18t-17 -16t-18.5 -14.5t-19.5 -11.5q-10 -4 -19.5 -8t-20.5 -6l-10 -2l-10 -2q-6 0 -11 -1t-10 -1q-6 -1 -11.5 -1.5t-10.5 -0.5h-10.5h-11.5l-118 2v-298h-63v0v0v0z
M127 365h108q2 0 4 -0.5t4 -0.5h4h4h8.5h8.5h7.5t7.5 1h4t5 1q2 0 4 0.5t4 0.5q8 1 16.5 3t15.5 6q3 1 5 2t5 3q5 2 10 5.5t10 6.5q6 5 11.5 10t10.5 11q4 4 6.5 8.5t5.5 9.5q2 3 3.5 5.5t2.5 5.5q3 8 5.5 16t4.5 16t3 17l2 18v0v1v0.5v1.5v0v1v0v0v0.5v1.5q0 12 -1.5 23.5
t-3.5 21.5q-3 11 -7 20.5t-9 18.5q-4 9 -10.5 16.5t-13.5 14.5t-15.5 13t-17.5 10q-1 0 -2.5 0.5t-2.5 1.5q-2 0 -3 0.5l-3 1.5t-4.5 2t-4.5 2q-1 0 -2.5 0.5t-2.5 1.5q-1 0 -2.5 0.5t-2.5 0.5h-2.5t-2.5 1q-1 0 -2.5 0.5t-2.5 0.5h-2.5t-2.5 1h-3h-2h-2.5t-2.5 1h-3h-3
h-2.5t-2.5 1h-3h-3h-2.5h-2.5h-2.5h-2.5h-1.5h-0.5h-0.5h-0.5h-2h-2h-0.5h-1.5h-1.5h-0.5h-2h-1h-3.5h-3.5h-3.5h-3.5h-1.5h-1.5h-1.5h-0.5h-2h-1h-1.5h-1.5h-1.5h-0.5h-1.5h-1.5h-2.5h-2.5l-81 2v-307v0v0v0z" />
    <glyph glyph-name="Q" unicode="Q" horiz-adv-x="740" 
d="M702 56v-69h-7q-10 1 -19.5 2t-18.5 3q-4 1 -8.5 2t-8.5 2q-4 2 -8.5 3t-8.5 2q-8 4 -15.5 8.5t-15.5 10.5q-7 6 -14.5 13t-15.5 15q-7 -6 -14.5 -11t-15.5 -10q-7 -4 -15.5 -8.5t-16.5 -7.5q-8 -4 -16.5 -6.5t-17.5 -4.5q-9 -1 -17.5 -3t-16.5 -4h-2h-1h-2h-2
q-2 0 -4 -0.5t-3 -1.5h-4.5h-3.5h-2t-2 -1h-2h-2h-4t-3 -1h-4h-4h-3.5t-3.5 -1h-2.5h-3.5q-34 0 -65.5 6t-60.5 19t-56.5 33t-53.5 47q-25 27 -44 57t-32 64q-13 33 -19 70.5t-6 77.5q0 42 6 80.5t19 72.5q12 35 30.5 66t43.5 59q24 27 51 47.5t57 33.5q30 14 63 21t68 7
t67.5 -7t62.5 -21q30 -13 57.5 -34t52.5 -48q24 -28 42 -59t31 -66q12 -34 18.5 -73t6.5 -81q0 -19 -2 -38.5t-6 -37.5q-4 -19 -9 -37t-12 -35q-7 -18 -15.5 -34.5t-17.5 -31.5q-10 -16 -21 -30t-23 -27q5 -4 9.5 -7.5t9.5 -6.5q5 -4 10 -7t10 -5q5 -3 10.5 -4.5t10.5 -3.5
q5 -1 10.5 -1.5t11.5 -0.5l13 3v0v0v0zM514 102l-33 30q-1 0 -2 0.5t-2 1.5t-2 1.5t-2 1.5t-2 1.5t-2 1.5l-2 2l-2 2l-1.5 1.5t-2.5 1.5l-1.5 1.5l-0.5 0.5q0 1 -0.5 1.5l-0.5 0.5h-1.5t-0.5 1q-1 0 -1.5 0.5l-1.5 1.5l-1.5 1.5l-1.5 1.5q-4 4 -8.5 7.5t-9.5 6.5
q-2 2 -4.5 3.5t-4.5 3.5q-2 1 -4.5 3t-4.5 3q-4 3 -8.5 6t-9.5 6q-3 2 -5.5 3t-5.5 2q-3 2 -5.5 3t-5.5 2q-2 1 -4.5 2t-5.5 2h-2t-2 1q-2 0 -3.5 1t-3.5 1q-3 1 -5.5 2t-4.5 2q-3 0 -5.5 1t-5.5 2q-6 2 -11.5 3.5t-10.5 2.5q-6 2 -11.5 2.5t-10.5 1.5q-4 1 -7.5 1.5
t-7.5 0.5t-7 0.5t-6 1.5h-3.5h-3.5h-3.5t-3.5 1h-3.5h-3.5h-2h-1h-2h-2h-6t-6 -1q-4 0 -7 -0.5t-6 -0.5q-4 0 -8 -0.5t-8 -1.5q-2 0 -4 -0.5t-4 -0.5l-6 -2t-6 -1q-4 -1 -7 -2l-6 -2t-5.5 -2t-5.5 -2q-3 -2 -5.5 -3t-5.5 -2q2 -6 4.5 -12t6.5 -12l4 -6t5 -6l4 -6l4 -6
q5 -6 9.5 -12t9.5 -11t10 -9.5t10 -9.5q0 -1 0.5 -1.5t1.5 -0.5l1.5 -1.5l1.5 -1.5t2.5 -2t2.5 -2l1.5 -1.5t1.5 -0.5q0 -1 0.5 -1.5t1.5 -0.5l1.5 -1.5t1.5 -0.5q0 -1 0.5 -1.5t1.5 -0.5q9 -7 18 -13t19 -11q9 -5 18.5 -9t19.5 -7q3 -1 6.5 -2t6.5 -2q6 -1 12.5 -2.5
t13.5 -2.5q4 0 7 -0.5t7 -0.5q7 -1 14 -1h14h4.5h6.5h5t7 1h5t6 1t6 1.5t6 1.5q3 0 6 0.5t6 1.5q3 0 6 1l6 2q2 0 3 0.5l3 1.5q1 0 2.5 0.5t2.5 1.5q3 1 6 2.5t6 2.5q6 2 11.5 5t10.5 6q3 2 5.5 3.5t4.5 3.5q2 1 4.5 3t5.5 4v2v0v0zM110 279q2 1 4 1.5t4 0.5q1 1 2 1t2 1
q3 0 6 1l6 2l6 2t7 2q3 0 6 1l6 2t6.5 1.5t6.5 1.5q3 0 6.5 0.5t6.5 1.5t6 1.5t7 0.5q3 1 6 1.5t6 0.5h2h2h2.5t2.5 1h1.5h1.5h3h2h2h2h2.5t2.5 1h1.5h1.5h3h2q22 0 43 -2t41 -7q19 -4 37.5 -11t35.5 -15q8 -4 16.5 -9t17.5 -10q8 -6 16.5 -11.5t16.5 -11.5q17 -12 32.5 -26
t31.5 -29q2 -2 4.5 -4t3.5 -4l2 -2l2 -2l2 -2l2 -2l0.5 -0.5t0.5 -1.5l0.5 -0.5l1.5 -1.5q2 -1 3 -2l2 -2l2 -2l2 -2l2 -2l2 -2q10 11 19 22t16 24q5 8 9.5 16.5t8.5 18.5l4.5 9t4.5 10q6 14 10.5 29t7.5 30q2 15 4 30.5t2 31.5q0 34 -5 65t-16 59q-10 29 -25 54.5t-35 47.5
q-20 23 -42 39.5t-46 28.5q-25 11 -51.5 17t-55.5 6q-28 0 -54.5 -6t-50.5 -17q-24 -12 -46.5 -28.5t-42.5 -39.5t-35.5 -48.5t-25.5 -53.5t-15 -59t-4 -65v-1.5v-0.5v0v0v-1.5v-0.5v0v0v-1v0v-1.5v-0.5v-1.5v-0.5v-10t1 -10v-4.5t1 -4.5v-4.5v-4.5t0.5 -4.5t1.5 -4.5
q0 -3 0.5 -5t1.5 -4v-2.5t1 -2.5v-3v-2q1 -2 1.5 -4.5t1.5 -4.5v2v0v0z" />
    <glyph glyph-name="R" unicode="R" horiz-adv-x="515" 
d="M64 0v739h150q4 -1 7.5 -1.5t7.5 -0.5h7.5h7.5h4h4q2 -1 4 -1h4h4h4q1 -1 3 -1h4q4 -1 7.5 -1.5t7.5 -0.5q4 -1 8 -1.5t8 -0.5q3 -1 6.5 -1.5t7.5 -0.5q4 -1 7.5 -1.5t7.5 -1.5q8 -2 15 -4.5t14 -5.5q8 -3 14.5 -6.5t13.5 -8.5q12 -8 22.5 -17.5t19.5 -20.5
q9 -10 16.5 -22t13.5 -26q7 -13 11.5 -27.5t7.5 -29.5t5 -30.5t2 -31.5q0 -23 -3.5 -44t-10.5 -41q-7 -19 -17 -37t-23 -34q-14 -16 -29 -28.5t-32 -20.5q-16 -8 -33.5 -12.5t-36.5 -4.5l176 -274h-78l-213 335h19q0 -1 0.5 -1.5t1.5 -0.5h1.5h1.5h0.5h0.5h0.5h0.5h1.5h1.5
h5h7h5h7h5h7h6t6 1h5.5h4.5h3t3 1h2.5h2.5t2.5 0.5t3.5 0.5q1 0 1.5 0.5t1.5 0.5h2.5t2.5 1q1 0 2.5 0.5t2.5 0.5q3 0 5.5 0.5t4.5 1.5t4.5 1.5t5.5 1.5q5 2 9.5 4t8.5 5q10 5 18.5 12t15.5 14q8 8 14.5 16.5t12.5 18.5q5 10 9 20.5t6 21.5q3 11 4.5 22.5t1.5 24.5v0v1v0v0
v0.5v1.5v0v1v0v0v0.5v1.5l-2 18t-4 18q-1 5 -2.5 9t-2.5 9q-2 4 -3.5 8.5t-3.5 8.5q-4 8 -8.5 16t-9.5 15q-4 7 -10 13t-13 11t-13.5 9.5t-14.5 8.5l-14 6t-15 4q-4 1 -7.5 1.5t-7.5 1.5q-4 0 -7.5 0.5t-7.5 1.5h-8t-8 1h-4t-4 1h-4h-4h-1h-1h-2h-2h-2.5h-2.5h-1.5h-1.5h-2
h-1h-1.5h-1.5h-1.5h-1.5l-99 2v-672h-63v0v0v0z" />
    <glyph glyph-name="S" unicode="S" horiz-adv-x="423" 
d="M18 207h67q0 -16 3 -30.5t8 -28.5q5 -13 11.5 -25t15.5 -23t18.5 -19.5t21.5 -13.5q11 -6 23 -8.5t25 -2.5q14 0 26.5 2.5t23.5 7.5q12 5 22 13t20 18t17 21.5t12 24.5q5 14 7 28.5t2 30.5v7.5t-1 7.5q0 3 -0.5 6.5t-1.5 7.5t-2 7.5t-2 7.5q-1 3 -2 6.5t-3 7.5
q-3 7 -6.5 13t-7.5 12t-8 11.5t-9 10.5q-2 2 -3.5 3t-3.5 3q-4 3 -7.5 6t-6.5 5t-5.5 3.5t-5.5 3.5q-3 1 -5.5 2.5t-5.5 2.5q-6 2 -12 4.5t-12 4.5q-4 2 -8 3.5t-8 2.5q-2 1 -4 1.5t-4 1.5h-1.5h-0.5v0v1h-1v0v0v0v0v0h-1v0v0v1h-1.5h-0.5v0v0h-1.5h-0.5v0v0q-1 0 -1 0.5
v0.5v0v0h-1v0v0v0h-1v0h-1.5h-0.5h-1v1h-1v0h-0.5t-0.5 1h-1v0q-2 1 -4.5 1.5t-4.5 1.5q-5 2 -9.5 3.5t-8.5 2.5q-3 1 -6.5 2.5t-6.5 2.5q-3 2 -6.5 3.5t-6.5 2.5q-2 1 -4 1.5t-4 1.5q-4 2 -8 4.5t-8 5.5q-7 5 -12.5 9.5t-10.5 10.5q-7 6 -12.5 13.5t-10.5 14.5
q-5 8 -9 16.5t-7 17.5q-4 9 -6 18t-4 19q-1 9 -2 19t-1 20q0 22 3 42t10 38q6 18 16 34t23 30t27 24t30 17q17 7 34 10.5t35 3.5t34.5 -3.5t32.5 -11.5q15 -7 29 -18t27 -25t22 -30t15 -34q7 -18 10 -37.5t3 -40.5l-66 2q-1 13 -3.5 25t-7.5 24q-4 11 -9.5 21.5t-13.5 19.5
l-6 6t-6 5q-6 5 -11.5 9t-12.5 7q-10 5 -21 7.5t-23 2.5t-22.5 -2.5t-20.5 -7.5q-10 -4 -18.5 -11.5t-16.5 -16.5q-7 -10 -13 -20.5t-10 -21.5q-4 -12 -5.5 -24t-1.5 -25q0 -16 2 -30.5t7 -25.5t11.5 -19.5t16.5 -14.5q6 -4 12.5 -8t13.5 -7q3 -2 6.5 -3.5t6.5 -3.5
q3 -1 5.5 -2t4.5 -2q8 -4 16 -7t17 -5v-0.5t1 -0.5v-1v0v0h1v0h1v0v0h0.5h1.5l0.5 -0.5l0.5 -0.5q0 -1 0.5 -1h0.5h2h2q0 -1 0.5 -1.5t1.5 -0.5h1.5h1.5h0.5h0.5l1 -1v0h2h2q0 -1 0.5 -1.5t1.5 -0.5h1.5h1.5q3 -1 6.5 -2t6.5 -3q3 -1 6.5 -2t6.5 -3q3 -1 6.5 -2.5t6.5 -2.5
q3 -2 6 -3t6 -3l4 -2l4 -2q4 -3 8 -5.5t8 -5.5q6 -4 12 -9t11 -11q8 -7 14 -15t11 -17l10 -18t9 -20q4 -10 6.5 -20.5t4.5 -21.5q1 -5 1.5 -10.5t1.5 -10.5q0 -6 0.5 -11.5t0.5 -10.5q0 -23 -3.5 -44t-10.5 -40q-8 -19 -19 -36.5t-25 -32.5q-14 -16 -29.5 -27t-32.5 -19
q-16 -7 -34 -10.5t-37 -3.5q-20 0 -39 3.5t-36 9.5q-17 8 -33 19t-30 27q-14 15 -25 32.5t-18 36.5q-7 20 -11 42t-3 47v2v0v0z" />
    <glyph glyph-name="T" unicode="T" horiz-adv-x="362" 
d="M150 0v672h-145v67h351v-67h-143v-672h-63v0v0v0z" />
    <glyph glyph-name="U" unicode="U" horiz-adv-x="556" 
d="M64 739h63v-449v-6v-5v-5.5v-4.5v-4.5v-4.5v-4.5t1 -4.5q0 -8 0.5 -15.5t1.5 -15.5q1 -7 2.5 -14.5t3.5 -15.5q1 -7 3 -14.5t4 -14.5l6 -14t7 -14q5 -10 10.5 -18t12.5 -15q6 -7 14 -13t16 -11t16.5 -9t17.5 -6q8 -3 17 -4t18 -1v0h1v0v0h0.5h1.5h0.5h1.5v0h1q4 0 8 0.5
t8 0.5q3 1 7 2l8 2q8 2 15.5 6t14.5 8q5 3 9.5 6t8.5 6q2 2 4.5 4t4.5 4q6 6 11.5 13t10.5 15t9 17l8 18l6 18t4 19q2 10 3 19.5t2 19.5t1.5 19.5t1.5 19.5v0.5v1.5v0.5v1.5v0v1v0.5v1.5v2v2v2v2v451h63v-449q0 -15 -0.5 -29t-2.5 -28q0 -5 -0.5 -9.5t-1.5 -9.5
q-1 -9 -1.5 -17.5t-2.5 -17.5q-1 -13 -4.5 -26.5t-8.5 -25.5q-5 -13 -11 -25t-14 -23q-7 -12 -15.5 -22t-17.5 -19q-10 -9 -20 -16t-21 -13q-11 -5 -22.5 -8.5t-22.5 -6.5q-7 -2 -15.5 -3.5t-16.5 -1.5q-4 -1 -8 -1h-8q-12 0 -23.5 1.5t-22.5 4.5q-8 2 -15.5 4t-14.5 4
q-4 1 -7.5 2.5t-7.5 3.5q-10 5 -20.5 12t-19.5 15t-17 17.5t-16 20.5t-15 23t-12 25t-8.5 26.5t-5.5 27.5q-2 10 -3.5 20t-2.5 21q0 3 -0.5 6.5t-0.5 7.5q-1 14 -1.5 28.5t-0.5 29.5v451v0v0v0z" />
    <glyph glyph-name="V" unicode="V" horiz-adv-x="596" 
d="M267 0l-259 739h69l220 -647l222 647h69l-261 -739h-60v0v0v0z" />
    <glyph glyph-name="W" unicode="W" horiz-adv-x="816" 
d="M187 0l-179 739h65l154 -644l151 644h59l151 -643l154 643h65l-179 -739h-83l-137 606l-139 -606h-82v0v0v0z" />
    <glyph glyph-name="X" unicode="X" horiz-adv-x="517" 
d="M6 0l214 378l-201 361h73l167 -296l166 296h73l-204 -361l216 -378h-74l-177 316l-179 -316h-74v0v0v0z" />
    <glyph glyph-name="Y" unicode="Y" horiz-adv-x="503" 
d="M220 0v247l-219 492h69l181 -415l181 415h69l-218 -492v-247h-63v0v0v0z" />
    <glyph glyph-name="Z" unicode="Z" horiz-adv-x="408" 
d="M14 0v66l309 606h-300v67h370v-67l-308 -605h317v-67h-388v0v0v0z" />
    <glyph glyph-name="bracketleft" unicode="[" horiz-adv-x="298" 
d="M266 -51v-76l-16 6t-16 7q-7 4 -14.5 9t-15.5 10q-5 3 -9.5 7t-8.5 8q-2 2 -4.5 4t-4.5 4t-4 4.5t-4 4.5q-4 4 -8 8.5t-8 9.5q-1 1 -1.5 2t-1.5 2l-2 2t-1 2q-1 1 -1.5 2.5t-1.5 2.5t-1.5 2t-1.5 2l-2 4t-3 4l-2 4t-3 4q-5 9 -9.5 17.5t-8.5 18.5t-7 20.5t-4 20.5
q-2 10 -3.5 20.5t-2.5 22.5t-1 24.5v25.5v291v18.5t1 19.5q0 9 0.5 18t1.5 18q1 8 2.5 16.5t3.5 17.5t5 17.5t7 16.5q1 2 1.5 3.5t1.5 2.5q0 2 0.5 3.5t1.5 2.5t1 2t1 2l2 4l2 4q2 3 3.5 6t3.5 6l4 6l4 6v0l1 1v0.5v0.5l0.5 0.5l1.5 1.5v0l1 1v0v0v0l1 1v0.5v0.5
q5 7 11 13.5t12 13.5q7 7 14 13.5t14 13.5q8 6 15.5 11.5t14.5 9.5q8 5 16 8l16 6v0v0v0l1 1v0v0v0h1v0v0v0v0h0.5t1.5 1v0v0h0.5h1.5v-74q-16 -9 -29.5 -18.5t-23.5 -20.5q-11 -10 -19.5 -22t-13.5 -25q-7 -13 -11.5 -27t-6.5 -31q-3 -16 -4.5 -34t-1.5 -38v-275
q0 -22 1.5 -41t3.5 -36t6.5 -32t8.5 -28q5 -13 13 -24.5t20 -21.5q11 -11 25.5 -20.5t31.5 -18.5v-1v0v0z" />
    <glyph glyph-name="backslash" unicode="\" horiz-adv-x="514" 
d="M334 0l-263 739h60l263 -739h-60v0v0v0z" />
    <glyph glyph-name="bracketright" unicode="]" horiz-adv-x="298" 
d="M32 663v76l8 -4t8 -3q3 -2 7 -4l8 -4q8 -4 15.5 -9t14.5 -10q2 -2 4.5 -3.5t4.5 -3.5q5 -4 9.5 -8t8.5 -8q5 -4 8.5 -8.5t7.5 -9.5q2 -2 4 -4.5t4 -4.5q1 -1 1.5 -2t1.5 -2t1.5 -2t1.5 -2t1.5 -2.5t1.5 -2.5t1.5 -2t1.5 -2t1.5 -2t1.5 -2q0 -1 0.5 -2t1.5 -2t1.5 -2
t1.5 -2q0 -1 0.5 -2t1.5 -2q6 -10 10.5 -19.5t8.5 -20.5q4 -10 6.5 -20t4.5 -20q1 -5 1.5 -10.5t1.5 -11.5q0 -5 0.5 -10.5t1.5 -11.5q1 -12 1.5 -24t0.5 -25v-287q0 -12 -0.5 -22.5t-1.5 -20.5t-1.5 -19t-1.5 -17q0 -6 -1.5 -11.5t-2.5 -11.5q0 -3 -0.5 -5.5t-1.5 -5.5
q-1 -4 -2.5 -8t-2.5 -8q-2 -5 -3 -9t-3 -8q0 -1 -1 -2t-1 -2l-2 -4l-2 -4q0 -1 -1 -2l-1 -1l-1 -1v0q-1 -1 -2 -2.5t-1 -2.5q-2 -3 -3.5 -6t-3.5 -6q-1 -2 -2 -3.5t-2 -2.5q-1 -2 -2 -3.5t-2 -2.5h-1v0v-0.5v-1.5v0v0v0v-1h-1v0v0v-1v0v0q-5 -7 -10.5 -13.5t-11.5 -12.5
q-5 -6 -11.5 -12.5l-13.5 -13.5q-7 -6 -14 -11.5t-15 -9.5q-7 -5 -14.5 -8.5t-14.5 -6.5h-1.5t-0.5 -1h-0.5h-1.5t-2 -0.5t-2 -1.5h-1.5h-2.5q-1 0 -1.5 -0.5l-1.5 -1.5v75q15 8 28 17t24 20q11 10 19 20.5t15 23.5q5 13 9.5 27.5t8.5 30.5q2 17 3.5 35t1.5 37v278v6v6v3.5
v3.5v3v3v6v6v6v6q-1 5 -1.5 10.5t-1.5 11.5q-1 3 -1.5 6t-0.5 6q0 2 -0.5 5t-1.5 6l-2 6l-2 6t-2.5 6.5t-3.5 7.5q0 2 -1 3.5t-1 3.5q-1 1 -2 3t-1 4q-2 4 -4 7.5t-4 7.5q-4 7 -8 13t-9 12q-4 5 -8.5 10t-9.5 9t-10 7.5t-10 7.5q-6 4 -12 7.5t-12 7.5v2v0v0z" />
    <glyph glyph-name="asciicircum" unicode="^" horiz-adv-x="515" 
d="M69 180h-54l217 559h49l218 -559h-54l-190 484l-186 -484v0v0v0z" />
    <glyph glyph-name="underscore" unicode="_" horiz-adv-x="425" 
d="M425 -125h-425v58h425v-58v0v0v0z" />
    <glyph glyph-name="grave" unicode="`" horiz-adv-x="321" 
d="M90 779l168 -108l-28 -58l-168 106l28 60v0v0v0z" />
    <glyph glyph-name="a" unicode="a" horiz-adv-x="580" 
d="M527 547v-547h-61v103h-2q-6 -16 -14 -29t-17 -24q-10 -11 -20.5 -20t-22.5 -16t-24.5 -11t-25.5 -8q-13 -3 -26.5 -5t-27.5 -2h-4h-3q-2 1 -4 1h-4h-4h-3q-2 1 -3.5 1h-3.5t-3.5 0.5t-3.5 0.5q-2 1 -3.5 1.5t-3.5 0.5q-4 1 -7.5 1.5t-6.5 1.5q-7 1 -13.5 2.5t-12.5 4.5
q-3 1 -6.5 2.5t-6.5 2.5q-10 5 -19.5 10t-18.5 12q-10 7 -19 14.5t-18 16.5t-17.5 19t-16.5 21q-1 0 -1.5 0.5t-0.5 1.5t-0.5 1.5l-1.5 1.5q-1 2 -2 3.5t-2 3.5t-2.5 4t-2.5 4t-2 4.5t-2 5.5q-3 6 -6 13t-5 14q-1 3 -1.5 5.5t-1.5 5.5q-2 5 -3.5 11.5t-2.5 12.5
q-2 7 -3.5 14t-2.5 15q0 2 -0.5 4.5t-0.5 5.5q-1 11 -1.5 21.5t-0.5 21.5q0 14 1 27.5t3 26.5q3 13 6.5 25.5t7.5 25.5l10 24t11 22q7 11 14 21l14 20q8 10 17 19t19 17t20 15.5t22 13.5q11 6 23 10.5t25 7.5t27 5t29 2v0v0h0.5h1.5v0h1v0v0h0.5h1.5q6 0 12.5 -1t13.5 -2
t13.5 -2.5t12.5 -3.5t12.5 -4t12.5 -5t12.5 -6t12.5 -6q12 -7 22.5 -16t19.5 -20q9 -10 17 -23t14 -27l2 2v104h61v0v0v0zM284 488q-19 -1 -36.5 -5.5t-34.5 -12.5q-16 -7 -31.5 -19t-28.5 -28q-14 -16 -24.5 -33t-16.5 -37q-7 -19 -10.5 -40t-3.5 -44q0 -22 3.5 -43
t10.5 -40t18 -36.5t24 -32.5q14 -16 29.5 -27t31.5 -19q3 -1 6.5 -2.5t7.5 -2.5q13 -5 27 -7.5t30 -2.5q18 0 35 4t33 12t31 19.5t28 27.5t23 33t17 36q6 18 9.5 38t3.5 42q0 23 -3.5 44t-9.5 40q-7 20 -16.5 37t-22.5 33t-27.5 28t-30.5 20t-34 12t-38 4v2v0v0z" />
    <glyph glyph-name="b" unicode="b" horiz-adv-x="579" 
d="M53 0v739h63v-294h2q5 11 10.5 21.5t12.5 20.5q8 9 17 17.5t19 15.5q4 2 7 4t7 4q7 4 14 7.5t14 6.5t15.5 6t17.5 5q2 0 5 0.5t6 1.5h1.5h1.5h2.5t2.5 1h0.5h0.5h0.5h1.5h1.5h1.5h2h2h2t2 1h2h2h1h2q25 0 48.5 -5t45.5 -15t42.5 -25.5t39.5 -35.5t32.5 -42.5t23.5 -48.5
q10 -25 15 -53t5 -58q0 -13 -1.5 -25.5t-3.5 -24.5q-1 -12 -4 -24t-6 -23q-2 -6 -3.5 -11t-3.5 -10t-3.5 -9.5t-3.5 -9.5q-4 -9 -8 -16.5t-9 -14.5l-1.5 -1.5l-0.5 -0.5v-1.5v-0.5l-1.5 -1.5l-0.5 -0.5v-0.5v-0.5l-1 -1v0q0 -1 -0.5 -1.5l-1.5 -1.5l-1.5 -1.5l-1.5 -1.5
q-5 -7 -9.5 -13t-9.5 -12t-9.5 -10.5l-9.5 -9.5q-5 -4 -9.5 -8.5t-9.5 -8.5q-4 -4 -8.5 -7t-9.5 -6l-14 -8t-14 -7l-14 -4t-14 -3q-4 -1 -7.5 -1.5t-6.5 -1.5q-4 0 -7.5 -0.5t-7.5 -1.5q-5 -1 -10 -1t-10 -1h-5h-5h-3.5h-3.5h-1.5h-0.5q-1 1 -1.5 1h-1.5h-2h-2q-1 1 -1.5 1
h-1.5h-2.5h-3.5h-2h-1q-1 1 -2 1h-2h-0.5h-1.5q-1 1 -1.5 1h-1.5h-1h-1h-1v0q-1 1 -2 1h-1h-1h-1h-1v0q-1 1 -2 1h-1q-10 2 -20.5 4.5t-19.5 6.5q-10 4 -19.5 9t-18.5 12q-10 6 -18 13t-15 15t-13 18t-11 20l-1 2v-94h-60v0v0v0zM294 488q-10 -1 -19.5 -3t-18.5 -4t-18 -5
t-17 -7q-9 -4 -16.5 -9.5t-15.5 -11.5q-7 -6 -14 -13t-14 -15t-13 -16.5t-11 -17.5t-8.5 -18t-5.5 -18q-3 -10 -5 -19.5t-4 -20.5q-1 -10 -1.5 -21t-0.5 -22q0 -23 3 -44t10 -40t17 -35.5t24 -31.5t29 -26t31 -19q17 -7 35 -11t37 -4q14 0 27 2t26 7q4 1 8.5 3t8.5 4
q17 8 31.5 19.5t27.5 27.5q14 16 24 33.5t16 36.5q7 19 10.5 40t3.5 43q0 23 -3.5 44.5t-10.5 40.5t-17 36t-24 32q-13 15 -28 26.5t-32 18.5q-16 8 -34.5 12t-37.5 4v2v0v0z" />
    <glyph glyph-name="c" unicode="c" horiz-adv-x="549" 
d="M446 160h69q-8 -21 -17.5 -39t-21.5 -34q-11 -16 -24 -30t-27 -25q-16 -12 -31.5 -20.5t-32.5 -12.5q-17 -5 -35 -8t-37 -3q-25 0 -49.5 5t-47.5 13q-22 10 -42.5 25t-39.5 35t-33 43.5t-23 48.5q-10 26 -14.5 54.5t-4.5 59.5q0 30 4.5 58.5t14.5 53.5q9 26 23.5 48.5
t33.5 42.5t39 35.5t42 25.5q22 11 46 16t49 5q18 0 36 -3t35 -9t34 -15t33 -21q17 -12 30 -26t25 -31q11 -16 20 -34.5t16 -38.5l-70 2q-7 11 -14 21.5t-15 20.5q-8 9 -17.5 18t-20.5 16q-4 2 -7.5 4t-7.5 4q-7 4 -14.5 7.5t-15.5 5.5q-6 2 -11.5 3.5t-11.5 2.5t-11.5 1.5
t-11.5 0.5q-20 0 -38 -4t-35 -12q-16 -7 -31.5 -18.5t-29.5 -26.5q-13 -15 -24 -32t-18 -36t-10.5 -40t-3.5 -44t3.5 -44t10.5 -40q6 -19 16.5 -36.5t23.5 -33.5q14 -16 28.5 -27.5t30.5 -19.5t34 -12t38 -4q13 0 25.5 1.5t24.5 4.5q11 3 22 8t21 12q10 6 19 14t18 18
q9 9 17.5 20t15.5 24v2v0v0z" />
    <glyph glyph-name="d" unicode="d" horiz-adv-x="582" 
d="M528 739v-739h-59v100h-2q-9 -16 -18 -28.5t-19 -23.5q-10 -10 -21 -19t-22 -16t-23.5 -11t-26.5 -7q-13 -3 -27.5 -5t-28.5 -2h-8t-7 1q-4 0 -8 0.5t-8 0.5q-4 1 -7.5 1.5t-6.5 1.5q-4 1 -7.5 2t-7.5 2t-7.5 2t-6.5 2q-4 1 -7.5 2.5t-7.5 2.5q-7 3 -14 7.5t-14 9.5
q-3 2 -5.5 3.5t-4.5 3.5t-4.5 4t-5.5 4q-5 4 -9.5 8.5t-9.5 8.5q-4 5 -9.5 9.5t-10.5 10.5q-5 5 -9.5 11t-9.5 12h-0.5t-0.5 1v0v0q-1 0 -1 0.5v1.5h-0.5t-0.5 1h-1v0q-1 0 -1.5 0.5t-0.5 1.5l-0.5 0.5t-0.5 1.5l-0.5 0.5t-0.5 1.5q-1 1 -1.5 2t-1.5 2q-4 5 -7.5 12t-6.5 15
q-4 8 -7 18t-6 21t-5.5 22.5t-3.5 23.5q-2 12 -3 24t-1 25q0 30 4.5 58.5t14.5 53.5q9 26 23 48.5t32 42.5q19 20 39 35.5t42 25.5t46 15t49 5h2h2h1h2h1.5h1.5h2h2q12 -1 24 -3.5t23 -6.5q12 -4 24 -9t23 -12t21 -15t19 -17q9 -10 16.5 -21t14.5 -23l1 2v287h63v0v0v0z
M467 276q0 22 -3.5 42t-10.5 39t-17 36t-24 32t-29 26.5t-32 18.5q-4 2 -8.5 3.5t-8.5 3.5q-13 4 -26 6.5t-27 2.5q-19 0 -36 -4t-33 -12q-16 -7 -31 -19t-28 -27q-14 -16 -24.5 -33t-16.5 -36q-7 -19 -10.5 -39t-3.5 -42t3.5 -43t10.5 -41q6 -19 16.5 -36.5t23.5 -33.5
q14 -16 28.5 -28t30.5 -20q17 -8 35 -12t37 -4t36.5 4t33.5 12q17 8 32 20t28 28t23 33.5t17 36.5q7 20 10.5 41t3.5 43v2v0v0z" />
    <glyph glyph-name="e" unicode="e" horiz-adv-x="552" 
d="M519 247h-421q1 -21 4.5 -39.5t10.5 -35.5q8 -16 18 -31.5t23 -29.5q14 -14 28 -24.5t29 -17.5t30.5 -10t31.5 -3v0v0h0.5h1.5v0h1v0v0v0h1v0v0q13 0 25 2t24 6q12 5 24 11t24 14q11 8 21 17.5t18 19.5q8 11 15 23.5t12 26.5l65 2q-6 -22 -14.5 -41t-19.5 -36t-24.5 -32
t-29.5 -29q-16 -13 -32.5 -23.5t-33.5 -16.5q-17 -5 -35 -8.5t-37 -3.5q-25 0 -48.5 5t-45.5 14q-22 10 -41.5 25t-37.5 36q-18 20 -31.5 43.5t-22.5 48.5q-9 26 -13 53.5t-4 57.5q0 29 4 56.5t13 52.5q9 26 22.5 49t31.5 44q17 21 36 37t41 26q22 11 45.5 16t48.5 5
q14 0 27.5 -2t26.5 -5q13 -4 25.5 -9t24.5 -12t23.5 -15.5t21.5 -18.5q11 -10 20.5 -21t17.5 -23t15 -24t12 -24q3 -6 5 -12t5 -12q2 -7 3.5 -13t2.5 -12q2 -13 4.5 -26t3.5 -27q0 -7 0.5 -14t1.5 -14t1.5 -14t0.5 -14v2v0v0zM98 314h358q-3 17 -8.5 33.5t-13.5 31.5
q-7 15 -17.5 29t-23.5 27q-8 9 -17.5 16t-18.5 12q-4 3 -8.5 5.5t-9.5 4.5q-14 6 -29 9.5t-32 3.5q-16 0 -32 -3.5t-31 -9.5q-14 -6 -27.5 -15t-26.5 -21q-13 -13 -23.5 -27t-18.5 -29q-7 -16 -12.5 -33t-8.5 -36v2v0v0z" />
    <glyph glyph-name="f" unicode="f" horiz-adv-x="266" 
d="M85 0v480h-72v67h72v0v1v1.5v1.5v0v1v0v0v0.5v1.5v0v0v0.5v1.5q0 22 3 41.5t8 35.5q6 17 15 30.5t20 25.5q12 11 25 20t28 15t31.5 9t35.5 4l12 2v-67h-12q-12 -1 -22.5 -3.5t-20.5 -5.5q-10 -4 -18 -9t-15 -12t-12 -16t-8 -20q-4 -10 -5.5 -23t-1.5 -27v-9h116v-67h-116
v-480h-63v0v0v0z" />
    <glyph glyph-name="g" unicode="g" horiz-adv-x="572" 
d="M518 547v-469v-12v-11q-1 -6 -1 -11v-10q-1 -10 -1.5 -19t-0.5 -16q-1 -4 -1.5 -8t-1.5 -8q-1 -5 -1.5 -9.5t-0.5 -8.5q-1 -4 -2.5 -8t-3.5 -8q0 -2 -1 -4t-2 -5v-1t-1 -1q0 -2 -0.5 -3.5t-1.5 -2.5q0 -1 -1 -2t-1 -2q-1 -2 -2 -4.5t-2 -4.5t-2 -3.5t-2 -3.5q-1 -1 -2 -3
l-2 -4q-2 -3 -4.5 -6.5t-4.5 -7.5q-3 -4 -6 -7.5t-5 -7.5q-7 -9 -15 -17t-16 -15q-9 -8 -18 -14t-19 -11t-19.5 -9.5t-19.5 -8.5q-10 -3 -20.5 -6t-20.5 -5h-2.5t-2.5 -1h-2h-3h-2t-2 -1h-2h-2h-2.5h-2.5h-2t-2 -1h-2h-3h-1.5h-2.5q-19 0 -37.5 3.5t-36.5 10.5t-35 17.5
t-34 24.5q-16 14 -30 30t-24 34q-11 18 -18.5 38t-12.5 43l61 -1q7 -14 14.5 -27.5t16.5 -25.5t19 -22t20 -19q11 -8 22.5 -15t24.5 -11q13 -5 26.5 -7t28.5 -2h2h2h1h2h0.5h1.5v0h1q0 1 0.5 1h1.5h0.5h1.5q10 1 20 3t20 5q10 4 19.5 8.5t19.5 10.5t18.5 13.5t15.5 15.5
t13.5 17.5t11.5 20.5q2 3 3 6l2 6q1 1 1.5 2.5t1.5 3.5q0 1 0.5 2.5t1.5 3.5v2.5t1 3.5q0 1 0.5 2.5t1.5 2.5v1.5t1 1.5v1.5v1.5t0.5 2.5t1.5 3.5q0 2 0.5 6.5t1.5 8.5q1 5 1.5 9.5t0.5 9.5v4.5v5.5v4.5t1 5.5v3v3v2.5v2.5v5v6v32h-2q-5 -15 -11 -27t-14 -23
q-7 -10 -16.5 -19t-20.5 -16q-6 -4 -11.5 -7t-10.5 -6t-10.5 -5t-11.5 -4q-12 -3 -23.5 -6t-22.5 -5h-2h-2h-1.5t-1.5 -1h-2h-2h-2h-2h-1.5h-1.5h-2t-1 -1h-2h-2h-1.5h-0.5h-0.5h-0.5h-1.5h-0.5v0v0h-1.5h-0.5v0v0h-1.5h-0.5v0v0h-1.5h-0.5v0v0h-1v0q-5 0 -10.5 1t-10.5 1
q-6 1 -11.5 2t-10.5 3q-11 3 -21.5 6t-21.5 8q-10 5 -20.5 11t-19.5 13q-8 7 -16.5 15t-16.5 17q-9 10 -17 20.5t-15 22.5t-12.5 24.5t-10.5 25.5q-4 13 -7.5 26.5t-6.5 27.5q-2 14 -3 28.5t-1 29.5q0 11 0.5 20.5t1.5 19.5q0 2 0.5 4.5t0.5 5.5q1 7 2.5 14.5t3.5 14.5
q1 6 2.5 12t3.5 11q1 3 1.5 6t1.5 5q2 8 5 15t6 13q1 2 2 4.5t2 3.5l2 4l2 4q0 1 0.5 1.5l0.5 0.5v1v1l0.5 1t1.5 2l1.5 1.5t0.5 1.5q1 0 1.5 0.5t0.5 1.5l12 16t12 15q5 7 11 13.5t12 12.5q8 8 16 14.5t16 11.5q4 3 8 5.5t8 4.5q12 6 24 10.5t25 7.5q12 3 24 5t25 2v0h1v0
v0h0.5h1.5v0v0h0.5h1.5v0v0h0.5h1.5v0v0h0.5h1.5q14 -1 27 -3t26 -6t25 -9.5t24 -13.5q12 -7 22.5 -16t19.5 -20q9 -10 16.5 -23t14.5 -27l2 2v106h60v0v0v0zM271 488q-19 -1 -35.5 -5.5t-31.5 -12.5q-16 -7 -30 -19t-26 -28q-13 -16 -22 -33t-16 -35q-6 -18 -9 -37.5
t-3 -40.5q0 -23 3 -44t9 -41q7 -19 15.5 -37t21.5 -34t27 -28.5t30 -20.5q17 -8 34.5 -12t38.5 -4h9t9 1q4 0 8.5 1t8.5 2q8 2 16.5 4.5t16.5 6.5t16 8.5t15 10.5q3 3 6.5 6t7.5 7q4 3 7.5 7t6.5 8q5 5 9 11t8 13t7.5 14.5t7.5 14.5q2 4 3 7.5t3 7.5q1 4 2.5 8t2.5 8
q1 3 1.5 5.5t0.5 4.5q1 6 2.5 11.5t1.5 10.5v2v2q0 2 0.5 3.5t1.5 2.5v2v2v1.5t1 1.5v0.5v1.5v2v2v1.5v1.5l0.5 0.5t0.5 1.5v2v2v1.5v1.5v0.5v1.5q0 23 -3.5 44t-10.5 40t-17 36t-24 33q-13 15 -27.5 27t-31.5 19q-16 8 -34.5 12t-37.5 4v2v0v0z" />
    <glyph glyph-name="h" unicode="h" horiz-adv-x="518" 
d="M53 0v739h63v-271q5 10 10.5 19t12.5 17t15 14.5t18 12.5q9 5 18 9.5t19 8.5q9 3 19.5 5t20.5 3v0h1h0.5h1.5h1.5h1.5h0.5h1.5q11 0 22 -1.5t21 -4.5q6 -1 11.5 -3t10.5 -4t10.5 -4t11.5 -5q3 -2 6.5 -4t6.5 -4q7 -4 13.5 -8.5t12.5 -9.5q9 -8 17.5 -17t15.5 -19
t13 -20.5t11 -21.5t9 -22.5t6 -22.5l2 -12l2 -12q1 -7 1.5 -13t1.5 -12q2 -13 2 -25.5v-25.5v-286h-62v288q0 8 -0.5 16t-1.5 17q-1 8 -1.5 16.5t-2.5 16.5q-1 8 -3 16.5t-4 15.5q-1 4 -3 8l-4 8q-2 3 -4 7l-4 8q-3 6 -7.5 12t-9.5 11q-1 1 -2.5 3t-3.5 3l-14 12t-15 10
q-8 5 -16.5 8t-16.5 5q-9 2 -17.5 3.5t-16.5 1.5h-1.5h-0.5h-1v0h-1.5h-0.5h-1v0h-1.5h-0.5v0v0h-1v0q-1 -1 -1.5 -1h-0.5v0v0h-1v0q-7 -1 -14.5 -2.5t-14.5 -3.5l-14 -6t-14 -8q-7 -4 -13.5 -9.5t-12.5 -11.5l-10 -12t-10 -13q-2 -3 -3.5 -6t-3.5 -5q-1 -3 -2.5 -6t-2.5 -6
q-2 -4 -3.5 -9t-2.5 -10q0 -2 -0.5 -3.5t-0.5 -3.5q-1 -7 -2 -13.5t-2 -13.5t-1 -13.5v-13.5v-4v-4v-4v-4v-4v-4v-2.5v-3.5v-286h-63v0v0v0z" />
    <glyph glyph-name="i" unicode="i" horiz-adv-x="170" 
d="M53 0v547h63v-547h-63v0v0v0zM53 613v126h63v-126h-63v0v0v0z" />
    <glyph glyph-name="j" unicode="j" horiz-adv-x="172" 
d="M119 547v-497v-2v-2v-1.5v-0.5v-1.5v-0.5v-1.5v-0.5q0 -13 -0.5 -24.5t-1.5 -21.5q-1 -11 -1.5 -22t-2.5 -22q0 -5 -1 -10.5t-3 -11.5q-1 -5 -3 -10.5t-4 -10.5l-6 -10t-6 -11q-3 -5 -6.5 -10t-7.5 -10q-6 -7 -12 -13t-13 -11q-6 -5 -12.5 -9.5t-14.5 -8.5q-1 0 -2 -0.5
t-1 -1.5q-1 0 -2 -0.5t-2 -0.5l-4 -2l-4 -2q-3 -1 -5.5 -1.5t-3.5 -1.5q-2 -1 -4.5 -1.5t-5.5 -1.5q-3 0 -6 -0.5t-7 -0.5q-3 -1 -6 -1h-6l-3 71q18 2 30.5 5.5t22.5 10.5t16.5 17t10.5 23q3 13 6 26.5t4 27.5q2 13 3 27.5t1 30.5v499h63v0v0v0zM56 613v126h63v-126h-63v0v0
v0z" />
    <glyph glyph-name="k" unicode="k" horiz-adv-x="426" 
d="M53 0v739h63v-519l213 327h81l-180 -274l192 -273h-81l-151 216l-74 -112v-104h-63v0v0v0z" />
    <glyph glyph-name="l" unicode="l" horiz-adv-x="170" 
d="M53 0v739h63v-739h-63v0v0v0z" />
    <glyph glyph-name="m" unicode="m" horiz-adv-x="797" 
d="M53 0v547h60v-71h1q4 10 9 19t12 16q6 8 13.5 14.5t15.5 11.5q4 2 8.5 4t8.5 4t8.5 4t8.5 3q9 2 19 3.5t20 1.5q6 0 11.5 -0.5t10.5 -0.5q5 -1 10.5 -2t11.5 -3q5 -1 10 -3l10 -4l10 -4t10 -5q7 -3 12.5 -7.5t11.5 -8.5q3 -3 6 -5t6 -5q8 -7 15.5 -16t14.5 -19v-0.5
t1 -0.5v-1.5v-0.5q0 -1 0.5 -1.5l1.5 -1.5v-0.5t1 -0.5v-1v0q0 -1 0.5 -1.5t1.5 -0.5v-0.5t1 -0.5v-1.5v-0.5q0 -1 0.5 -1.5l1.5 -1.5v-1.5v-0.5v0h1v-1.5v-0.5v0h1q0 -1 0.5 -1h0.5v0v0v0.5t1 1.5v0v0v0v1v0v0v0.5v1.5l0.5 0.5l1.5 1.5v1.5t1 1.5q0 1 0.5 1.5l1.5 1.5
q0 1 0.5 2t1.5 2v0.5t1 1.5v0.5v1.5q5 8 11 15.5t12 14.5l14 12t15 11t16 9.5t17 7.5q8 3 16.5 6t17.5 4h1h2h0.5t1.5 1h0.5h1.5h0.5t1.5 1h0.5h1.5h1h2h1.5h1.5h2.5t2.5 1h1h2h1.5h1.5q5 0 9.5 -0.5t9.5 -0.5q4 -1 9 -2t9 -2q5 -1 9.5 -3t9.5 -4q4 -2 9 -4t9 -5
q9 -5 18 -11.5t18 -14.5q5 -4 9 -8.5t9 -8.5q4 -5 8.5 -9.5t8.5 -9.5q7 -8 13 -17t10 -18q5 -10 8 -19.5t5 -20.5q1 -5 1.5 -10.5t1.5 -10.5q1 -6 1.5 -11.5t1.5 -10.5v-11.5t1 -11.5v-11v-12v-310h-63v305v3.5v3.5v4v4v2v2v1.5v1.5v0.5v1.5v2v2v1.5v1.5v0.5v1.5
q-1 2 -1.5 4.5t-0.5 5.5v3.5v2.5q-1 2 -1 3.5v2.5q-1 2 -1.5 4.5t-0.5 5.5q0 2 -0.5 3t-0.5 3q0 1 -0.5 2.5t-0.5 2.5q-1 3 -2 5.5t-1 5.5q-1 2 -2 4.5t-2 5.5q-1 2 -1.5 3.5t-1.5 2.5q0 1 -0.5 2t-0.5 2q-1 2 -2 4.5t-3 4.5q-4 8 -9.5 15t-11.5 13q-3 4 -7.5 7.5t-8.5 6.5
q-2 1 -4 3t-4 3q-4 2 -7.5 3.5t-6.5 3.5q-4 1 -7.5 2.5t-7.5 2.5q-8 2 -15.5 3.5t-15.5 1.5q-7 0 -14.5 -1.5t-15.5 -3.5q-7 -2 -13.5 -5t-14.5 -7q-7 -4 -13.5 -9t-11.5 -11q-6 -6 -11 -12t-9 -13q-1 -1 -1.5 -2.5t-1.5 -3.5q-2 -3 -3.5 -6t-2.5 -6q-1 -2 -2 -4.5t-1 -4.5
q-1 -3 -1.5 -5.5t-0.5 -4.5l-2 -10l-2 -10t-1 -10v-10v-5.5v-4.5v-5.5v-4.5v-5.5v-4.5v-4.5v-4.5v-1.5v-0.5v-1v0v-1.5v-0.5v0v0v-303h-63v313v4.5v4.5q-1 2 -1 4.5v4.5v4.5v5.5q-1 2 -1 4.5v4.5q-1 5 -1.5 9.5t-1.5 8.5q-1 5 -1.5 10t-2.5 10q0 1 -0.5 2t-0.5 2t-0.5 2
t-0.5 2q-1 2 -1.5 4t-1.5 4q-1 1 -1.5 2t-0.5 2t-0.5 2t-1.5 2l-2 4l-2 4q-4 8 -9.5 14.5t-11.5 12.5q-5 6 -11.5 11.5t-13.5 9.5q-4 2 -7.5 4t-6.5 4q-4 1 -7.5 2.5t-7.5 2.5q-7 2 -14.5 3.5t-15.5 1.5q-4 0 -7.5 -0.5t-6.5 -0.5q-4 -1 -7.5 -1.5t-7.5 -1.5q-3 -1 -6.5 -2
t-7.5 -2q-4 -2 -7.5 -3.5t-6.5 -3.5q-7 -4 -13.5 -8.5t-11.5 -9.5l-10 -12t-10 -13q-4 -7 -7.5 -13.5t-6.5 -14.5q-2 -7 -3.5 -14t-1.5 -14q-1 -7 -1.5 -14.5t-0.5 -15.5q0 -4 -0.5 -8t-0.5 -7v-8v-8v-311h-63v0v0v0z" />
    <glyph glyph-name="n" unicode="n" horiz-adv-x="518" 
d="M53 0v547h60v-79h1q7 10 14 19t14 17q8 8 16.5 15.5t16.5 13.5q9 6 19 10.5t20 7.5t21 4.5t22 1.5q6 0 11.5 -0.5t11.5 -0.5q6 -1 11.5 -2t11.5 -3q11 -3 22.5 -7.5t21.5 -10.5q11 -6 21 -13.5t19 -15.5t18 -17.5t17 -20.5l6 -10l6 -10l5.5 -11t4.5 -10t4 -10.5t4 -10.5
q1 -6 2.5 -11.5t2.5 -10.5q2 -11 3.5 -22.5t2.5 -23.5t1 -24.5v-25.5v-286h-62v288v3.5v3.5q-1 2 -1 4v4v9.5v8.5q-1 4 -1.5 8t-0.5 8q0 2 -0.5 4t-0.5 5q-1 2 -1.5 4t-0.5 4q-1 8 -3 16.5t-4 15.5q-3 8 -6.5 15.5t-8.5 14.5q-3 6 -7.5 11t-8.5 10q-2 2 -4 4.5t-4 4.5
q-7 6 -13.5 12t-14.5 10q-8 5 -16.5 8t-16.5 5q-9 2 -17.5 3.5t-16.5 1.5h-1.5h-1.5h-1.5h-1.5h-0.5h-1.5h-1.5h-1.5q-7 -1 -14.5 -2.5t-14.5 -4.5q-8 -3 -15 -6t-14 -8q-7 -4 -13.5 -9.5t-11.5 -11.5q-6 -6 -10.5 -12t-9.5 -13l-4 -6t-3 -6l-3.5 -7t-2.5 -6
q-3 -7 -4.5 -13.5t-2.5 -13.5t-2 -13.5t-1 -14.5q-1 -7 -1 -14v-14q-1 -1 -1 -2v-2v-2v-2v-2v-2v-2v-2v-1.5v-1.5v-1.5v-0.5v-1.5v-0.5v-1.5v-0.5v-286h-63v0v0v0z" />
    <glyph glyph-name="o" unicode="o" horiz-adv-x="556" 
d="M279 559q24 -1 46.5 -6.5t43.5 -16.5q21 -10 41 -26t38 -37t31.5 -44t22.5 -48t14 -51t5 -55t-4.5 -56t-13.5 -53q-9 -25 -22.5 -49t-30.5 -45q-18 -22 -37 -37.5t-41 -26.5q-22 -10 -45 -15t-48 -5t-48 5t-44 14q-22 10 -42 25t-38 36q-18 20 -31.5 43t-22.5 48
t-13.5 52t-4.5 57q0 29 4 57t13 53q9 26 22.5 49t31.5 45q18 21 37.5 37t41.5 26q22 11 45.5 16.5t48.5 5.5v2v0v0zM279 488q-19 -1 -37 -6t-34 -13t-30.5 -20t-27.5 -28t-23 -33.5t-16 -37.5q-7 -19 -10 -39.5t-3 -42.5t3 -42.5t10 -39.5q6 -19 16.5 -36t23.5 -32
q14 -16 28 -27.5t30 -19.5q17 -7 34 -11t36 -4q20 0 37.5 4t33.5 12t30.5 20.5t27.5 28.5q12 16 21 33.5t16 36.5q6 20 9.5 41t3.5 43q0 11 -1 22t-3 21q-1 10 -4 19.5t-6 19.5q-3 9 -7 18t-9 18q-5 8 -11 16.5t-14 16.5q-4 5 -8.5 9t-9.5 8q-2 2 -4.5 4t-4.5 4
q-7 5 -14.5 10t-15.5 9t-16.5 7t-16.5 5q-9 2 -17.5 3t-16.5 1v2v0v0z" />
    <glyph glyph-name="p" unicode="p" horiz-adv-x="579" 
d="M53 547h60v-94h1q5 9 11 18t13 17t15 15t18 14q9 6 18.5 11.5t19.5 9.5q9 5 19.5 8t20.5 5h1t2 1v0h1h1h1h1t2 1v0h1h1h1h1.5t1.5 1h1.5h0.5h2t2 1h1h2h3.5h2.5h1.5t1.5 1h2h2h1.5t1.5 1h0.5h1.5h3.5h3.5q6 0 12.5 -0.5t12.5 -1.5t12.5 -2t12.5 -3q12 -3 24 -7.5
t24 -10.5q12 -7 24 -15t23 -18q8 -7 15.5 -14.5t14.5 -16.5q4 -4 7.5 -8t7.5 -9q3 -3 5.5 -6t4.5 -7t4.5 -7.5t5.5 -8.5q5 -9 10 -20t9 -23q4 -13 7 -26t5 -27q2 -13 3.5 -27.5t1.5 -29.5q0 -31 -5 -58.5t-15 -53.5q-10 -25 -23.5 -48t-32.5 -43t-39.5 -35t-42.5 -25
q-22 -8 -45.5 -13t-48.5 -5h-2h-1h-2h-2q-1 1 -2 1h-2h-2h-2h-1.5h-1.5h-1.5h-0.5h-0.5h-0.5q-1 1 -2.5 1h-2.5h-1.5h-1.5q-3 1 -6 1.5t-5 0.5q-9 2 -17.5 4.5t-15.5 4.5l-14 6t-14 7q-4 2 -7 4.5t-7 4.5q-10 7 -19 15t-17 18q-7 9 -12.5 20t-10.5 24l-2 2v-294h-63v739v0v0
v0zM294 58q19 -1 37.5 2.5t34.5 10.5q17 8 32 19t28 27q14 15 24 32t17 36q7 20 10.5 41t3.5 44q0 22 -3.5 42.5t-10.5 39.5q-6 20 -16 37t-24 33q-13 16 -27.5 28t-31.5 20q-4 2 -8.5 3.5t-8.5 3.5q-13 4 -26 6.5t-27 2.5q-19 0 -37 -3.5t-35 -11.5q-16 -7 -31 -18.5
t-29 -26.5t-24 -32t-17 -36t-10 -39t-3 -43q0 -11 0.5 -21.5t1.5 -21.5q2 -10 4 -20.5t5 -19.5q2 -10 5.5 -19t8.5 -18t11 -17t13 -16t14 -15.5t14 -13.5q8 -6 15.5 -11t16.5 -10q8 -4 17 -7.5t18 -5.5t18.5 -3t19.5 -1v2v0v0z" />
    <glyph glyph-name="q" unicode="q" horiz-adv-x="579" 
d="M526 547v-739h-63v294h-2q-5 -13 -11 -24.5t-14 -21.5q-7 -10 -15.5 -18t-18.5 -15t-21 -12.5t-22 -9.5q-5 -1 -10.5 -2.5t-10.5 -3.5q-6 -1 -11.5 -2.5t-10.5 -2.5h-1.5h-0.5h-1.5h-1.5h-1.5t-1.5 -1h-1.5h-0.5h-0.5h-1.5h-2h-2h-1.5h-1.5h-2t-1 -1h-2h-2h-1.5h-1.5
q-25 0 -49 5t-46 13q-22 10 -42.5 25t-39.5 35t-33 43t-23 48q-10 26 -14.5 53.5t-4.5 58.5q0 14 1 27.5t3 26.5t5 25.5t7 24.5t8 22.5t8 19.5q5 9 9.5 16.5t8.5 13.5v0v1v0v0l0.5 0.5l1.5 1.5v0l1 1v0v0l0.5 0.5l1.5 1.5q9 14 19.5 25t20.5 21q11 10 22 18t23 14
q11 6 22.5 10.5t23.5 8.5q11 4 22.5 6t23.5 3h2h2h0.5h0.5h0.5h1.5h1.5h1.5h2h2h2.5h3.5q0 -1 0.5 -1h1.5h2h2h2.5h2.5q2 -1 3.5 -1h3.5q3 -1 6 -1.5t6 -0.5q4 0 7 -0.5t6 -1.5q10 -2 19.5 -5t19.5 -8q10 -4 19.5 -9.5t19.5 -11.5q8 -7 16.5 -14.5t15.5 -15.5t13.5 -17
t10.5 -19l2 2v94h60v0v0v0zM285 58q5 -1 9.5 -1h9.5q4 0 9 1t9 2q5 1 9 2t9 3q4 2 8.5 4t8.5 4q8 5 16.5 10t16.5 11q4 3 7.5 6.5t7.5 6.5q3 4 6.5 8t7.5 8l12 16t11 17q1 2 2 4.5t2 4.5q3 7 5.5 14t4.5 14q2 9 4.5 19.5t3.5 20.5q0 4 0.5 7.5t0.5 6.5q1 7 1.5 14.5
t0.5 14.5q0 23 -3.5 43t-10.5 39t-17 36t-24 32t-29 26.5t-32 18.5q-16 8 -33.5 11.5t-36.5 3.5t-36.5 -4t-34.5 -12q-16 -8 -30 -20t-28 -28q-13 -16 -23.5 -33t-16.5 -37q-7 -19 -10.5 -39.5t-3.5 -42.5q0 -23 3.5 -44t10.5 -41q6 -19 16.5 -36t24.5 -32q13 -16 28.5 -27
t31.5 -19q17 -7 35 -11t37 -4v2v0v0z" />
    <glyph glyph-name="r" unicode="r" horiz-adv-x="255" 
d="M53 0v547h60v-79h1q4 11 9.5 21t12.5 19q6 8 14 15t18 12q9 5 18.5 9t19.5 7q4 1 7 1.5t7 1.5l14 2t14 1v-71q-3 -1 -5.5 -1.5t-4.5 -0.5q-3 -1 -5.5 -1.5t-4.5 -1.5q-3 -1 -5 -1.5t-4 -0.5q-2 -1 -4 -1.5t-4 -1.5t-4.5 -2t-4.5 -1l-4 -2l-4 -2q-4 -2 -7.5 -4.5
t-7.5 -4.5l-1.5 -1.5l-0.5 -0.5q-1 -1 -1.5 -1h-0.5l-1.5 -1.5l-0.5 -0.5l-1.5 -1.5l-0.5 -0.5q-1 -1 -1 -1.5v-0.5q-1 -1 -1.5 -1h-0.5q-1 -1 -2 -1.5l-1 -0.5q-1 -1 -1 -1.5v-0.5q-2 -1 -4 -2.5t-3 -3.5l-2.5 -2.5t-2.5 -3.5l-1.5 -1.5l-1.5 -1.5t-1.5 -2l-0.5 -1
q-1 -1 -1.5 -2t-1.5 -2l-1.5 -1.5t-0.5 -1.5q-4 -7 -8 -13.5t-6 -12.5q-3 -6 -5 -12.5t-3 -13.5q0 -2 -0.5 -4.5t-0.5 -4.5q-1 -5 -1.5 -10t-0.5 -11q-1 -8 -1 -17v-18v-304h-63v0v0v0z" />
    <glyph glyph-name="s" unicode="s" horiz-adv-x="329" 
d="M15 161h63v-2v-1v0v0v0v0v0v0v-1v0v0v0v-1.5v-0.5v0v0v0v0v0v0q0 -10 1 -19.5t5 -18.5q2 -9 7 -16.5t11 -15.5q6 -7 13 -13t14 -9q8 -4 16 -5.5t17 -1.5q8 0 16 1.5t15 4.5q5 2 9.5 4.5t8.5 6.5q2 2 4.5 4t4.5 4q5 6 9.5 13.5t8.5 15.5q2 8 3.5 17.5t1.5 19.5
q0 12 -1.5 23t-4.5 20q-4 9 -9 16t-13 13l-14 10t-15 9t-16.5 7.5t-16.5 6.5h-1.5h-2.5q-1 0 -1.5 0.5l-0.5 0.5l-0.5 0.5l-0.5 0.5h-1.5t-0.5 1q-1 0 -1.5 0.5t-1.5 0.5t-1.5 0.5l-1.5 1.5q-5 2 -9.5 3.5t-9.5 3.5q-4 2 -8.5 4.5t-8.5 4.5t-8.5 5t-8.5 6t-8.5 7t-7.5 8
q-5 5 -9 10.5t-8 11.5t-6.5 12t-4.5 13l-4 14t-3 14t-1.5 14.5t-0.5 14.5q0 17 2 32t7 28q5 14 13 26.5t18 23.5t20.5 18.5t22.5 13.5q11 5 24 8t27 3q13 0 25 -3t24 -8q11 -6 21 -14t20 -19t17 -23t12 -25t7 -27t2 -29l-62 2q0 8 -2 15.5t-4 14.5q-3 7 -7 13t-9 11
q-4 5 -10 9t-13 7q-6 2 -13 3.5t-15 1.5q-7 0 -13.5 -1.5t-11.5 -4.5q-6 -3 -11 -7t-10 -9l-8 -12t-6 -13t-3 -14t-1 -15q0 -11 1 -20.5t5 -17.5q3 -8 8 -14t11 -11q2 -1 4.5 -2.5t4.5 -3.5q4 -3 8.5 -5.5t9.5 -4.5q7 -4 14.5 -7t14.5 -5q13 -5 25.5 -11t24.5 -12
q11 -7 21.5 -14.5t19.5 -15.5q10 -8 17 -18.5t12 -24.5q5 -13 7.5 -29.5t2.5 -34.5q0 -19 -3 -37t-8 -33q-4 -16 -12.5 -29.5t-18.5 -25.5q-11 -12 -23 -21t-26 -13q-13 -6 -28 -9t-31 -3q-15 0 -28 3t-26 9q-13 4 -24 13t-22 22q-10 12 -18 25t-13 28q-5 14 -7.5 30
t-2.5 33v0v0v0.5v1.5v0v0v0.5v1.5v0v0v0.5v1.5v0v0v0.5v1.5v2v0v0z" />
    <glyph glyph-name="t" unicode="t" horiz-adv-x="288" 
d="M107 0v480h-97v67h97v192h63v-192h107v-67h-107v-480h-63v0v0v0z" />
    <glyph glyph-name="u" unicode="u" horiz-adv-x="516" 
d="M463 547v-547h-60v85h-1q-6 -14 -13 -26t-15 -21q-7 -10 -16 -17.5t-19 -12.5t-21 -8l-22 -6t-22.5 -4.5t-24.5 -1.5q-9 0 -18 1t-18 3q-9 1 -18 3.5t-17 4.5q-8 3 -16.5 8t-16.5 11t-16 14t-16 17l-4 4t-3 4q-2 2 -3.5 4t-3.5 4t-3.5 4t-3.5 4q-1 2 -2.5 4.5t-3.5 4.5
q-5 6 -9.5 14t-8.5 17t-5.5 19t-3.5 22q-2 11 -3 23t-2 25t-1 26.5v26.5v291h63v-289v-17t1 -16q0 -8 0.5 -15.5t1.5 -15.5t2.5 -15.5t3.5 -15.5q2 -7 4.5 -14t6.5 -14q5 -10 10.5 -18t11.5 -16q7 -7 14 -13.5t15 -11.5t16.5 -9t17.5 -6q9 -3 18 -4t19 -1q8 0 16.5 1t15.5 3
q8 2 16 5.5t16 7.5q7 5 13.5 10t13.5 11q6 6 12 13.5t11 15.5q5 7 8.5 14.5t5.5 15.5q3 8 5.5 16t3.5 17q1 8 1.5 16.5t1.5 17.5t1.5 18t0.5 18v291h63v0v0v0z" />
    <glyph glyph-name="v" unicode="v" horiz-adv-x="470" 
d="M202 0l-196 547h68l161 -453l161 453h68l-197 -547h-65v0v0v0z" />
    <glyph glyph-name="w" unicode="w" horiz-adv-x="706" 
d="M181 0l-176 547h67l146 -458l108 391h52l107 -391l149 458h66l-177 -547h-72l-100 363l-97 -363h-73v0v0v0z" />
    <glyph glyph-name="x" unicode="x" horiz-adv-x="408" 
d="M6 0l159 278l-159 269h74l124 -211l123 211h74l-160 -269l160 -278h-74l-123 219l-124 -219h-74v0v0v0z" />
    <glyph glyph-name="y" unicode="y" horiz-adv-x="455" 
d="M380 547h67l-268 -739h-66l73 209l-179 530h67l149 -436l157 436v0v0v0z" />
    <glyph glyph-name="z" unicode="z" horiz-adv-x="361" 
d="M8 0v65l252 415h-243v67h319v-67l-250 -413h266v-67h-344v0v0v0z" />
    <glyph glyph-name="braceleft" unicode="{" horiz-adv-x="298" 
d="M101 419v169q0 19 1 35.5t5 30.5q2 14 6.5 26t10.5 21t15 16t20 11q12 5 26.5 7t32.5 2h1.5h1.5h0.5h1.5h1.5h1.5h2h2q-10 -4 -18 -8.5t-14 -9.5q-7 -5 -12.5 -11t-9.5 -13t-6.5 -15t-4.5 -17q-1 -9 -2 -19.5t-1 -21.5v-176q0 -15 -1 -28t-3 -24q-1 -11 -3.5 -21
t-6.5 -19q-3 -9 -8.5 -17t-13.5 -14t-18 -11t-23 -8q12 -3 22 -7.5t17 -9.5q8 -5 13.5 -11.5t9.5 -14.5t6.5 -17t4.5 -20q2 -10 3 -22t1 -25v-189q0 -10 1 -20.5t2 -20.5q2 -9 4 -17t6 -15t9 -13t12 -11q6 -5 15 -9t19 -8h-4.5h-4.5h-2.5h-2.5q-3 1 -6.5 1h-6.5
q-7 0 -13 0.5t-12 1.5q-3 0 -6 1t-5 1l-6 2t-6 3q-6 3 -11.5 7t-10.5 9q-5 4 -9.5 9.5t-7.5 10.5t-5 11l-4 12q-1 7 -2.5 13.5t-2.5 12.5t-1 12.5v13.5v1.5v1.5v1.5v0.5v0.5v1.5v1.5v1.5v192v2.5v2.5v2v2v1v2t-0.5 2t-0.5 2v1v2v3.5v2.5q0 3 -0.5 6t-1.5 6t-1.5 6t-0.5 6
q-1 2 -1.5 3.5t-1.5 2.5q-1 2 -1.5 3.5t-1.5 2.5q0 2 -0.5 3.5t-2.5 2.5q-1 1 -1.5 2t-0.5 2t-0.5 2t-1.5 2l-6 6t-5 6q-1 2 -3 3t-3 2q-2 2 -3.5 3t-3.5 2q-3 2 -6 3.5t-8 2.5q-2 1 -3.5 1.5t-3.5 0.5q-2 1 -3.5 1.5t-3.5 0.5q2 1 4 1.5t4 0.5q1 1 2 1.5t2 0.5l4 2l4 2
q1 0 2 1t2 1q2 2 5 3.5t6 3.5q1 1 2.5 2t2.5 2t2.5 2t2.5 2q5 4 8.5 8.5t5.5 9.5q3 5 4.5 10t2.5 10t1.5 10.5t1.5 11.5v6t1 6v6.5v6.5v0v0v0v1v0v0v0v0v0v0v0.5v1.5v2v0v0z" />
    <glyph glyph-name="bar" unicode="|" horiz-adv-x="571" 
d="M258 0v739h54v-739h-54v0v0v0z" />
    <glyph glyph-name="braceright" unicode="}" horiz-adv-x="298" 
d="M97 446v178q0 11 -1 20.5t-3 18.5t-4.5 17t-5.5 15q-4 7 -9 13t-12 11q-6 5 -13.5 9.5t-16.5 8.5h0.5h1.5v0h1v0h1h0.5h1.5h0.5h0.5h0.5h1.5h2h2q17 0 31 -2t26 -7q11 -4 19.5 -11t14.5 -16q5 -9 9.5 -21t7.5 -26q2 -14 3.5 -31t1.5 -37v-167v-14t1 -13q0 -6 1 -12t2 -11
q1 -6 2.5 -11t4.5 -10q2 -5 6 -9.5t9 -9.5q2 -2 4.5 -4t4.5 -4q2 -1 3 -2t3 -2q1 -1 2.5 -1.5t2.5 -1.5q3 -1 6 -2.5t6 -3.5l6 -2l6 -2q-4 -1 -7.5 -1.5t-6.5 -2.5q-4 -1 -7.5 -2.5t-6.5 -3.5t-6 -4.5t-6 -5.5l-2.5 -2.5t-2.5 -3.5q-2 -1 -3 -2.5t-3 -3.5q-1 -1 -1.5 -2
t-0.5 -2q-1 -1 -1.5 -2t-1.5 -2t-1.5 -2t-0.5 -2l-0.5 -0.5t-0.5 -1.5q-1 -1 -2 -2.5t-2 -3.5q-1 -1 -1 -2.5v-3.5q-1 -3 -2.5 -6t-2.5 -6t-1 -6v-6v-3v-3v-3.5v-3.5v-6.5v-7.5v-188v-2.5v-2.5v-1.5v-0.5v-0.5v-1.5v-1.5v-1.5q0 -7 -0.5 -13.5t-1.5 -12.5t-2 -12.5t-2 -13.5
q-1 -6 -3.5 -12t-6.5 -11q-3 -5 -7 -10.5t-9 -9.5q-1 0 -1.5 -0.5t-0.5 -1.5q-1 0 -1.5 -0.5l-1.5 -1.5q-1 0 -1.5 -0.5t-0.5 -1.5q-1 0 -1.5 -0.5l-1.5 -1.5t-2.5 -1.5t-2.5 -1.5q-1 0 -2.5 -0.5t-2.5 -1.5t-2.5 -1.5t-2.5 -1.5q-2 0 -3 -0.5t-2 -1.5q-2 -1 -4.5 -1.5
t-5.5 -1.5h-2.5t-2.5 -1q-1 0 -2.5 -0.5t-2.5 -0.5q-5 -1 -10.5 -1.5t-10.5 -0.5h-6t-6 -1h-5.5h-5.5q10 4 18 8t14 9q7 5 11.5 11t8.5 13q3 7 5.5 15t4.5 17q2 10 2.5 20.5t0.5 21.5v190q0 12 1 23.5t3 21.5q1 11 4 20t7 17t9.5 14.5t13.5 11.5t17.5 9.5t21.5 7.5
q-13 3 -23 8t-18 11q-7 6 -13 14t-9 17q-4 9 -6.5 19t-3.5 21q-2 11 -3 24t-1 26v2v0v0z" />
    <glyph glyph-name="asciitilde" unicode="~" horiz-adv-x="515" 
d="M436 391l35 -47q-1 -1 -1 -2v-2v-1.5v-0.5l-1.5 -1.5l-0.5 -0.5v-0.5v-0.5l-1 -1v0q-5 -10 -10.5 -19t-10.5 -18q-2 -3 -4.5 -6t-4.5 -6q-4 -6 -8.5 -11.5t-9.5 -10.5q-7 -8 -14.5 -14t-16.5 -10t-18 -6t-19 -2h-7t-6 1h-3t-3 1q-2 0 -3.5 0.5t-3.5 1.5q-1 0 -3.5 0.5
t-4.5 1.5l-1 0.5l-1 0.5q-1 1 -2 1.5t-2 0.5l-4.5 1.5t-3.5 1.5q-1 0 -2 0.5t-2 1.5q-1 0 -2 0.5t-2 0.5h-0.5t-0.5 1h-0.5h-0.5q-1 0 -2 0.5t-1 1.5h-1.5h-1.5t-1.5 0.5l-1.5 1.5t-2.5 1.5t-3.5 1.5q-1 1 -2 1.5l-3 1.5q-1 0 -2.5 0.5t-2.5 1.5q-2 0 -3 0.5l-3 1.5
q-1 1 -1.5 1t-1.5 1h-1l-1 1q-1 0 -2 0.5t-2 1.5q-3 1 -5.5 2t-4.5 2q-1 1 -2 1.5t-1 1.5q-1 0 -2 0.5t-2 1.5h-1.5h-0.5h-1v1h-1v0h-0.5t-0.5 1h-1v0h-1.5h-0.5q-1 0 -1 0.5v1.5h-1v0q-1 0 -1.5 0.5t-0.5 1.5q-1 0 -2 0.5t-2 1.5q-1 0 -2 0.5t-2 0.5t-2 0.5t-1 1.5
q-1 0 -2 0.5t-2 1.5q-2 0 -3.5 1t-3.5 2q-1 0 -2 0.5t-2 1.5q-1 0 -2 0.5t-2 0.5t-2 0.5t-1 1.5q-1 0 -2 0.5t-2 0.5q-2 0 -4 0.5t-3 1.5h-4.5h-3.5h-2t-2 1h-2h-2q-7 0 -13 -1.5t-12 -4.5t-11 -7t-9 -9t-8.5 -10.5t-8.5 -11.5l-4 -6t-3 -6l-3.5 -7t-3.5 -6q-1 -1 -1.5 -2.5
t-1.5 -3.5q0 -1 -0.5 -2.5t-1.5 -2.5t-1.5 -2.5t-1.5 -3.5q0 -1 -0.5 -1.5l-0.5 -0.5q0 -1 -0.5 -1.5l-0.5 -0.5l-35 50l0.5 0.5l1.5 1.5v1.5t1 1.5q0 1 0.5 2t1.5 2q0 1 0.5 2t1.5 2l9.5 19t10.5 18t12.5 17.5t13.5 16.5q6 8 13.5 14t16.5 10q8 4 18 6t20 2h4t5 -1
q2 0 4 -0.5t4 -0.5q5 -1 9.5 -1.5t8.5 -2.5q2 -1 4.5 -2t4.5 -1q2 -1 4.5 -2t5.5 -2q5 -1 9.5 -3.5t9.5 -4.5q1 -1 2 -1.5t2 -1.5l1 -0.5l1 -0.5q1 0 2 -0.5t2 -0.5q0 -1 1 -1.5t2 -0.5q1 -1 2 -1.5t2 -0.5l0.5 -0.5l0.5 -0.5h0.5h1.5l1.5 -1.5t1.5 -0.5q1 -1 2 -1.5t2 -0.5
q6 -4 12 -7t13 -6l12 -6t11 -5q6 -3 11.5 -5t10.5 -4q2 -1 4 -1.5t5 -0.5h4h4q6 0 12 1t11 3t9.5 6t9.5 9t9 10l8 10t7.5 11t7.5 12q1 1 1.5 2t1.5 2q1 2 1.5 3.5t0.5 2.5v0.5t1 1.5v0.5v0.5l0.5 1t1.5 2v0l1 1v0.5v0.5q0 1 0.5 1.5l1.5 1.5v2v0v0z" />
    <glyph glyph-name="Adieresis" unicode="&#xc4;" horiz-adv-x="629" 
d="M9 0l271 739h70l269 -739h-68l-91 248h-292l-91 -248h-68v0v0v0zM192 315h244l-121 339l-123 -339v0v0v0zM221 931h62v-126h-62v126v0v0v0zM345 931h63v-126h-63v126v0v0v0z" />
    <glyph glyph-name="Aring" unicode="&#xc5;" horiz-adv-x="629" 
d="M9 0l271 739h70l269 -739h-68l-91 248h-292l-91 -248h-68v0v0v0zM192 315h244l-121 339l-123 -339v0v0v0zM314 989q8 -1 15.5 -3.5t14.5 -5.5t13.5 -8t11.5 -12q6 -7 10.5 -14.5t6.5 -15.5q3 -8 4.5 -17t1.5 -18q0 -10 -1.5 -18.5t-4.5 -16.5q-2 -8 -6.5 -15.5
t-10.5 -14.5q-5 -7 -11.5 -12t-13.5 -8q-7 -4 -14.5 -5.5t-15.5 -1.5t-15.5 1.5t-14.5 5.5q-7 3 -13.5 8t-11.5 12q-6 7 -10.5 14.5t-6.5 15.5q-3 8 -4.5 16.5t-1.5 18.5q0 9 1.5 18t4.5 17q2 8 6.5 15.5t10.5 14.5q5 7 11.5 12t13.5 8t14.5 5t15.5 2v2v0v0zM314 952
q-5 -1 -9.5 -2.5t-8.5 -3.5t-8 -5t-7 -7q-4 -4 -6.5 -8t-3.5 -9q-2 -5 -3 -10.5t-1 -10.5q0 -6 1 -11.5t3 -10.5q1 -5 3.5 -9.5t6.5 -8.5q3 -4 6.5 -7t7.5 -5t9 -3t10 -1t9.5 1t8.5 3t7.5 5t7.5 7q3 4 6 8.5t4 8.5q2 5 3 10.5t1 11.5q0 5 -1 10.5t-3 10.5q-1 5 -4 9.5
t-6 8.5q-4 4 -7.5 7t-7.5 5t-8.5 3t-9.5 1v2v0v0z" />
    <glyph glyph-name="Ccedilla" unicode="&#xc7;" horiz-adv-x="691" 
d="M348 0l-20 -58v2.5t1 0.5h0.5h1.5v1h1h0.5h1.5q0 1 0.5 1.5t1.5 0.5h1.5h1.5l0.5 0.5l0.5 0.5l0.5 0.5t1.5 0.5h1.5h1.5h2h2h1.5h1.5h0.5h1.5q8 0 14.5 -1t12.5 -4q7 -3 12 -7t9 -10q5 -5 8.5 -11.5t5.5 -13.5q2 -8 3 -16t1 -17t-1.5 -17.5t-4.5 -16.5q-2 -8 -6 -15.5
t-9 -14.5t-11 -12t-13 -9q-6 -3 -13.5 -5t-15.5 -2q-7 0 -14 1.5t-14 3.5q-6 3 -11.5 6t-10.5 8q-5 4 -9 10t-7 13t-5.5 14.5t-3.5 15.5l37 4q0 -1 0.5 -2t0.5 -3l0.5 -0.5l0.5 -0.5q0 -1 0.5 -2t0.5 -2q2 -2 3.5 -4.5t3.5 -4.5l2 -2t3 -2q1 0 2.5 -1t2.5 -2t2 -1.5l3 -1.5
q1 0 2.5 -0.5t2.5 -1.5v0h1v0v0v0h1v0v0v0v0h0.5h1.5v0h1v0v0h0.5t1.5 -1v0v0h0.5h1.5q4 0 7.5 1t7.5 3q3 1 6 4l6 6q2 4 4 7.5t3 7.5q2 4 2.5 8.5t0.5 9.5t-1 9.5t-3 8.5q-1 3 -2.5 6t-3.5 6q0 1 -0.5 1.5l-1.5 1.5q-3 4 -6.5 6.5t-7.5 4.5q-4 1 -7.5 2t-7.5 1h-6t-5 -1
t-3.5 -1.5t-2.5 -1.5l-1.5 -1.5t-1.5 -0.5q-2 -2 -4 -3.5t-4 -3.5q-1 -1 -2 -2.5t-2 -2.5t-1 -2t-1 -2l-26 16l34 90h31v0v0v0zM651 549h-69q-8 14 -17.5 26t-20.5 23q-10 11 -21.5 21t-25.5 18q-13 8 -27 15t-28 12q-13 5 -27.5 8.5t-28.5 4.5h-2h-1h-2h-2h-2h-3h-1.5h-1.5
h-2t-1 1h-1.5h-1.5h-1.5h-1.5q-26 0 -51.5 -6t-48.5 -17q-22 -12 -43.5 -29.5t-41.5 -40.5q-19 -23 -34 -48t-24 -52q-10 -27 -14.5 -56t-4.5 -59q0 -33 4.5 -63t14.5 -58q11 -28 26 -53t35 -48t41.5 -40.5t44.5 -28.5q23 -12 48.5 -17.5t52.5 -5.5q16 0 31.5 2.5t31.5 6.5
q15 5 30 11.5t29 16.5q15 9 28.5 19.5t24.5 22.5t22 26t20 30l70 2q-10 -24 -23 -45t-27 -40q-16 -19 -33 -35.5t-37 -30.5q-19 -14 -39.5 -24.5t-41.5 -17.5q-21 -5 -42.5 -8.5t-43.5 -3.5q-35 0 -67.5 6.5t-61.5 19.5q-29 14 -55.5 34t-50.5 48t-42 59t-29 65
q-12 34 -18 71.5t-6 78.5q0 39 6 75.5t18 70.5q11 33 29 63.5t42 58.5t50 49t55 34q29 14 60 21t65 7q6 0 11.5 -0.5t11.5 -0.5q6 -1 11.5 -1.5t11.5 -1.5q12 -1 24 -4t24 -7q11 -4 22.5 -8.5t21.5 -10.5q11 -6 22 -13t21 -15l0.5 -0.5l0.5 -0.5q0 -1 0.5 -1t1.5 -1
q2 -1 2.5 -2t1.5 -1l2 -2l2 -2t2 -1.5t2 -1.5l2 -2l2 -2l2 -2l2 -2l2 -2t3 -1l2 -2l2 -2l10.5 -10.5t9.5 -11.5q5 -6 10.5 -12t10.5 -13q2 -4 4.5 -7.5t4.5 -6.5q2 -2 3.5 -4t2.5 -4q1 -1 1.5 -2t1.5 -2l2 -4t2 -3q0 -2 1 -3.5t2 -3.5q1 -1 1.5 -2t0.5 -2q1 -1 1 -1.5v-0.5
q1 -2 2 -3.5t1 -3.5v-1.5v-1.5t0.5 -1.5l1.5 -1.5v-0.5t1 -0.5v-1.5v-0.5v-0.5t1 -0.5v-1.5v-0.5v2v0v0z" />
    <glyph glyph-name="Eacute" unicode="&#xc9;" horiz-adv-x="455" 
d="M64 0v739h344v-67h-281v-266h271v-67h-271v-272h281v-67h-344v0v0v0zM131 861l163 116l30 -58l-164 -114l-29 56v0v0v0z" />
    <glyph glyph-name="Ntilde" unicode="&#xd1;" horiz-adv-x="629" 
d="M64 0v739h85l352 -613v613h63v-739h-63l-374 650v-650h-63v0v0v0zM413 892l25 -48q-1 -3 -3.5 -5.5l-4.5 -4.5l-2 -2l-2 -2q-3 -3 -6 -5.5t-7 -4.5q-4 -3 -7.5 -5t-7.5 -4l-7 -3.5t-6 -2.5q-1 -1 -2.5 -1.5t-3.5 -0.5h-1.5h-1.5h-1.5h-0.5h-0.5h-1.5h-2h-2h-2.5h-2.5
q-2 0 -3 0.5t-3 0.5t-4.5 0.5t-5.5 1.5q-1 0 -2.5 0.5t-2.5 1.5q-1 0 -2.5 0.5t-2.5 1.5q-1 0 -2.5 0.5t-2.5 1.5t-2.5 1.5t-2.5 1.5h-1.5h-1.5t-1 0.5v1.5h-1.5t-0.5 1h-1v0q-1 0 -1.5 0.5l-1.5 1.5t-2 1.5l-3 1.5q-1 1 -2 1.5l-3 1.5q-1 0 -1.5 0.5l-1.5 1.5q-1 0 -2 0.5
t-2 1.5l-1.5 1.5t-1.5 0.5t-2 0.5t-1 1.5h-1.5t-0.5 1h-1.5h-0.5q-1 0 -1.5 0.5l-1.5 1.5h-1.5t-1.5 1h-0.5h-0.5q-1 0 -2 0.5t-2 1.5q-1 0 -2 0.5l-1 0.5q-1 1 -2 1h-2h-2t-2 1h-2h-2h-1.5h-0.5h-1.5h-0.5v0v0h-1v0v0v0q-1 0 -3 -0.5t-3 -1.5q-2 0 -3.5 -0.5t-3.5 -1.5
q-3 -1 -6 -3t-5 -4q-3 -2 -5.5 -4.5l-4.5 -4.5q-2 -1 -3.5 -2.5t-2.5 -3.5l-1.5 -1.5l-1.5 -1.5l-24 51q4 4 8 7.5t8 7.5t8.5 7.5t8.5 6.5q2 1 4.5 2t5.5 2q2 1 4.5 2t4.5 2q3 1 5.5 1.5t5.5 0.5q3 1 5.5 1h5.5h4t5 -1q2 0 4 -0.5t4 -0.5q4 -1 7 -1.5t6 -2.5q2 -1 3.5 -2
t3.5 -1q1 -1 3 -2t3 -2t2.5 -2t3.5 -1q0 -1 0.5 -1t1.5 -1q1 0 2 -0.5t2 -1.5l1.5 -1.5l1.5 -1.5l3 -1.5t2 -1.5q0 -1 0.5 -1.5t1.5 -0.5h1h2v-1.5t1 -0.5h0.5h1.5q0 -1 0.5 -1h0.5l1.5 -1.5t1.5 -0.5l0.5 -0.5t1.5 -0.5q1 -1 1.5 -1h0.5q1 -1 2 -1.5t2 -0.5h0.5h1.5
q0 -1 0.5 -1h0.5q1 0 2 -0.5t2 -0.5q1 -1 2 -1h2h4h4h0.5h1.5h2h2h0.5h1.5t1.5 0.5l1.5 1.5q1 0 2.5 0.5t2.5 1.5t3 1.5t4 1.5q1 1 2.5 2t2.5 2t2.5 2t2.5 2t2.5 2t2.5 2l3.5 3.5t3.5 2.5v2v0v0z" />
    <glyph glyph-name="Odieresis" unicode="&#xd6;" horiz-adv-x="738" 
d="M368 751q34 -1 65 -8.5t60 -21.5q29 -13 56 -34t52 -48q25 -28 43.5 -58.5t31.5 -63.5q12 -34 18.5 -70.5t6.5 -76.5t-6.5 -77.5t-18.5 -71.5q-13 -34 -31 -65t-42 -59q-25 -28 -52 -48.5t-56 -34.5q-29 -13 -61 -19.5t-66 -6.5q-33 0 -64 6t-60 19q-29 14 -55.5 34
t-52.5 48q-25 27 -43 57.5t-31 64.5t-19 70.5t-6 76.5t6 77t18 71q12 35 30.5 66t43.5 59q24 28 51 49t56 35t60.5 21t65.5 7v2v0v0zM369 58q28 -1 53.5 4t49.5 16t45.5 28.5t41.5 40.5t34.5 48t24.5 53t15 58.5t5 63.5q0 32 -5 61.5t-16 56.5q-10 27 -25 52.5t-35 47.5
q-20 23 -42 39.5t-45 27.5q-24 11 -49 17t-52 6q-28 0 -54 -6t-49 -17q-25 -12 -46.5 -29t-41.5 -40q-19 -23 -34 -48.5t-25 -53.5t-14.5 -58t-4.5 -62t4.5 -62t14.5 -57q11 -27 26 -51.5t36 -47.5q20 -22 42 -39.5t45 -28.5q24 -11 49.5 -16.5t51.5 -5.5v2v0v0zM275 931h63
v-126h-63v126v0v0v0zM400 931h63v-126h-63v126v0v0v0z" />
    <glyph glyph-name="Udieresis" unicode="&#xdc;" horiz-adv-x="556" 
d="M64 739h63v-449v-6v-5v-5.5v-4.5v-4.5v-4.5v-4.5t1 -4.5q0 -8 0.5 -15.5t1.5 -15.5q1 -7 2.5 -14.5t3.5 -15.5q1 -7 3 -14.5t4 -14.5l6 -14t7 -14q5 -10 10.5 -18t12.5 -15q6 -7 14 -13t16 -11t16.5 -9t17.5 -6q8 -3 17 -4t18 -1v0h1v0v0h0.5h1.5h0.5h1.5v0h1q4 0 8 0.5
t8 0.5q3 1 7 2l8 2q8 2 15.5 6t14.5 8q5 3 9.5 6t8.5 6q2 2 4.5 4t4.5 4q6 6 11.5 13t10.5 15t9 17l8 18l6 18t4 19q2 10 3 19.5t2 19.5t1.5 19.5t1.5 19.5v0.5v1.5v0.5v1.5v0v1v0.5v1.5v2v2v2v2v451h63v-449q0 -15 -0.5 -29t-2.5 -28q0 -5 -0.5 -9.5t-1.5 -9.5
q-1 -9 -1.5 -17.5t-2.5 -17.5q-1 -13 -4.5 -26.5t-8.5 -25.5q-5 -13 -11 -25t-14 -23q-7 -12 -15.5 -22t-17.5 -19q-10 -9 -20 -16t-21 -13q-11 -5 -22.5 -8.5t-22.5 -6.5q-7 -2 -15.5 -3.5t-16.5 -1.5q-4 -1 -8 -1h-8q-12 0 -23.5 1.5t-22.5 4.5q-8 2 -15.5 4t-14.5 4
q-4 1 -7.5 2.5t-7.5 3.5q-10 5 -20.5 12t-19.5 15t-17 17.5t-16 20.5t-15 23t-12 25t-8.5 26.5t-5.5 27.5q-2 10 -3.5 20t-2.5 21q0 3 -0.5 6.5t-0.5 7.5q-1 14 -1.5 28.5t-0.5 29.5v451v0v0v0zM184 931h63v-126h-63v126v0v0v0zM309 931h63v-126h-63v126v0v0v0z" />
    <glyph glyph-name="aacute" unicode="&#xe1;" horiz-adv-x="580" 
d="M527 547v-547h-61v103h-2q-6 -16 -14 -29t-17 -24q-10 -11 -20.5 -20t-22.5 -16t-24.5 -11t-25.5 -8q-13 -3 -26.5 -5t-27.5 -2h-4h-3q-2 1 -4 1h-4h-4h-3q-2 1 -3.5 1h-3.5t-3.5 0.5t-3.5 0.5q-2 1 -3.5 1.5t-3.5 0.5q-4 1 -7.5 1.5t-6.5 1.5q-7 1 -13.5 2.5t-12.5 4.5
q-3 1 -6.5 2.5t-6.5 2.5q-10 5 -19.5 10t-18.5 12q-10 7 -19 14.5t-18 16.5t-17.5 19t-16.5 21q-1 0 -1.5 0.5t-0.5 1.5t-0.5 1.5l-1.5 1.5q-1 2 -2 3.5t-2 3.5t-2.5 4t-2.5 4t-2 4.5t-2 5.5q-3 6 -6 13t-5 14q-1 3 -1.5 5.5t-1.5 5.5q-2 5 -3.5 11.5t-2.5 12.5
q-2 7 -3.5 14t-2.5 15q0 2 -0.5 4.5t-0.5 5.5q-1 11 -1.5 21.5t-0.5 21.5q0 14 1 27.5t3 26.5q3 13 6.5 25.5t7.5 25.5l10 24t11 22q7 11 14 21l14 20q8 10 17 19t19 17t20 15.5t22 13.5q11 6 23 10.5t25 7.5t27 5t29 2v0v0h0.5h1.5v0h1v0v0h0.5h1.5q6 0 12.5 -1t13.5 -2
t13.5 -2.5t12.5 -3.5t12.5 -4t12.5 -5t12.5 -6t12.5 -6q12 -7 22.5 -16t19.5 -20q9 -10 17 -23t14 -27l2 2v104h61v0v0v0zM284 488q-19 -1 -36.5 -5.5t-34.5 -12.5q-16 -7 -31.5 -19t-28.5 -28q-14 -16 -24.5 -33t-16.5 -37q-7 -19 -10.5 -40t-3.5 -44q0 -22 3.5 -43
t10.5 -40t18 -36.5t24 -32.5q14 -16 29.5 -27t31.5 -19q3 -1 6.5 -2.5t7.5 -2.5q13 -5 27 -7.5t30 -2.5q18 0 35 4t33 12t31 19.5t28 27.5t23 33t17 36q6 18 9.5 38t3.5 42q0 23 -3.5 44t-9.5 40q-7 20 -16.5 37t-22.5 33t-27.5 28t-30.5 20t-34 12t-38 4v2v0v0zM193 669
l164 116l29 -58l-164 -114l-29 56v0v0v0z" />
    <glyph glyph-name="agrave" unicode="&#xe0;" horiz-adv-x="580" 
d="M527 547v-547h-61v103h-2q-6 -16 -14 -29t-17 -24q-10 -11 -20.5 -20t-22.5 -16t-24.5 -11t-25.5 -8q-13 -3 -26.5 -5t-27.5 -2h-4h-3q-2 1 -4 1h-4h-4h-3q-2 1 -3.5 1h-3.5t-3.5 0.5t-3.5 0.5q-2 1 -3.5 1.5t-3.5 0.5q-4 1 -7.5 1.5t-6.5 1.5q-7 1 -13.5 2.5t-12.5 4.5
q-3 1 -6.5 2.5t-6.5 2.5q-10 5 -19.5 10t-18.5 12q-10 7 -19 14.5t-18 16.5t-17.5 19t-16.5 21q-1 0 -1.5 0.5t-0.5 1.5t-0.5 1.5l-1.5 1.5q-1 2 -2 3.5t-2 3.5t-2.5 4t-2.5 4t-2 4.5t-2 5.5q-3 6 -6 13t-5 14q-1 3 -1.5 5.5t-1.5 5.5q-2 5 -3.5 11.5t-2.5 12.5
q-2 7 -3.5 14t-2.5 15q0 2 -0.5 4.5t-0.5 5.5q-1 11 -1.5 21.5t-0.5 21.5q0 14 1 27.5t3 26.5q3 13 6.5 25.5t7.5 25.5l10 24t11 22q7 11 14 21l14 20q8 10 17 19t19 17t20 15.5t22 13.5q11 6 23 10.5t25 7.5t27 5t29 2v0v0h0.5h1.5v0h1v0v0h0.5h1.5q6 0 12.5 -1t13.5 -2
t13.5 -2.5t12.5 -3.5t12.5 -4t12.5 -5t12.5 -6t12.5 -6q12 -7 22.5 -16t19.5 -20q9 -10 17 -23t14 -27l2 2v104h61v0v0v0zM284 488q-19 -1 -36.5 -5.5t-34.5 -12.5q-16 -7 -31.5 -19t-28.5 -28q-14 -16 -24.5 -33t-16.5 -37q-7 -19 -10.5 -40t-3.5 -44q0 -22 3.5 -43
t10.5 -40t18 -36.5t24 -32.5q14 -16 29.5 -27t31.5 -19q3 -1 6.5 -2.5t7.5 -2.5q13 -5 27 -7.5t30 -2.5q18 0 35 4t33 12t31 19.5t28 27.5t23 33t17 36q6 18 9.5 38t3.5 42q0 23 -3.5 44t-9.5 40q-7 20 -16.5 37t-22.5 33t-27.5 28t-30.5 20t-34 12t-38 4v2v0v0zM220 779
l168 -108l-28 -58l-168 106l28 60v0v0v0z" />
    <glyph glyph-name="acircumflex" unicode="&#xe2;" horiz-adv-x="580" 
d="M527 547v-547h-61v103h-2q-6 -16 -14 -29t-17 -24q-10 -11 -20.5 -20t-22.5 -16t-24.5 -11t-25.5 -8q-13 -3 -26.5 -5t-27.5 -2h-4h-3q-2 1 -4 1h-4h-4h-3q-2 1 -3.5 1h-3.5t-3.5 0.5t-3.5 0.5q-2 1 -3.5 1.5t-3.5 0.5q-4 1 -7.5 1.5t-6.5 1.5q-7 1 -13.5 2.5t-12.5 4.5
q-3 1 -6.5 2.5t-6.5 2.5q-10 5 -19.5 10t-18.5 12q-10 7 -19 14.5t-18 16.5t-17.5 19t-16.5 21q-1 0 -1.5 0.5t-0.5 1.5t-0.5 1.5l-1.5 1.5q-1 2 -2 3.5t-2 3.5t-2.5 4t-2.5 4t-2 4.5t-2 5.5q-3 6 -6 13t-5 14q-1 3 -1.5 5.5t-1.5 5.5q-2 5 -3.5 11.5t-2.5 12.5
q-2 7 -3.5 14t-2.5 15q0 2 -0.5 4.5t-0.5 5.5q-1 11 -1.5 21.5t-0.5 21.5q0 14 1 27.5t3 26.5q3 13 6.5 25.5t7.5 25.5l10 24t11 22q7 11 14 21l14 20q8 10 17 19t19 17t20 15.5t22 13.5q11 6 23 10.5t25 7.5t27 5t29 2v0v0h0.5h1.5v0h1v0v0h0.5h1.5q6 0 12.5 -1t13.5 -2
t13.5 -2.5t12.5 -3.5t12.5 -4t12.5 -5t12.5 -6t12.5 -6q12 -7 22.5 -16t19.5 -20q9 -10 17 -23t14 -27l2 2v104h61v0v0v0zM284 488q-19 -1 -36.5 -5.5t-34.5 -12.5q-16 -7 -31.5 -19t-28.5 -28q-14 -16 -24.5 -33t-16.5 -37q-7 -19 -10.5 -40t-3.5 -44q0 -22 3.5 -43
t10.5 -40t18 -36.5t24 -32.5q14 -16 29.5 -27t31.5 -19q3 -1 6.5 -2.5t7.5 -2.5q13 -5 27 -7.5t30 -2.5q18 0 35 4t33 12t31 19.5t28 27.5t23 33t17 36q6 18 9.5 38t3.5 42q0 23 -3.5 44t-9.5 40q-7 20 -16.5 37t-22.5 33t-27.5 28t-30.5 20t-34 12t-38 4v2v0v0zM140 613
l123 126h54l124 -126h-77l-74 73l-74 -73h-76v0v0v0z" />
    <glyph glyph-name="adieresis" unicode="&#xe4;" horiz-adv-x="580" 
d="M527 547v-547h-61v103h-2q-6 -16 -14 -29t-17 -24q-10 -11 -20.5 -20t-22.5 -16t-24.5 -11t-25.5 -8q-13 -3 -26.5 -5t-27.5 -2h-4h-3q-2 1 -4 1h-4h-4h-3q-2 1 -3.5 1h-3.5t-3.5 0.5t-3.5 0.5q-2 1 -3.5 1.5t-3.5 0.5q-4 1 -7.5 1.5t-6.5 1.5q-7 1 -13.5 2.5t-12.5 4.5
q-3 1 -6.5 2.5t-6.5 2.5q-10 5 -19.5 10t-18.5 12q-10 7 -19 14.5t-18 16.5t-17.5 19t-16.5 21q-1 0 -1.5 0.5t-0.5 1.5t-0.5 1.5l-1.5 1.5q-1 2 -2 3.5t-2 3.5t-2.5 4t-2.5 4t-2 4.5t-2 5.5q-3 6 -6 13t-5 14q-1 3 -1.5 5.5t-1.5 5.5q-2 5 -3.5 11.5t-2.5 12.5
q-2 7 -3.5 14t-2.5 15q0 2 -0.5 4.5t-0.5 5.5q-1 11 -1.5 21.5t-0.5 21.5q0 14 1 27.5t3 26.5q3 13 6.5 25.5t7.5 25.5l10 24t11 22q7 11 14 21l14 20q8 10 17 19t19 17t20 15.5t22 13.5q11 6 23 10.5t25 7.5t27 5t29 2v0v0h0.5h1.5v0h1v0v0h0.5h1.5q6 0 12.5 -1t13.5 -2
t13.5 -2.5t12.5 -3.5t12.5 -4t12.5 -5t12.5 -6t12.5 -6q12 -7 22.5 -16t19.5 -20q9 -10 17 -23t14 -27l2 2v104h61v0v0v0zM284 488q-19 -1 -36.5 -5.5t-34.5 -12.5q-16 -7 -31.5 -19t-28.5 -28q-14 -16 -24.5 -33t-16.5 -37q-7 -19 -10.5 -40t-3.5 -44q0 -22 3.5 -43
t10.5 -40t18 -36.5t24 -32.5q14 -16 29.5 -27t31.5 -19q3 -1 6.5 -2.5t7.5 -2.5q13 -5 27 -7.5t30 -2.5q18 0 35 4t33 12t31 19.5t28 27.5t23 33t17 36q6 18 9.5 38t3.5 42q0 23 -3.5 44t-9.5 40q-7 20 -16.5 37t-22.5 33t-27.5 28t-30.5 20t-34 12t-38 4v2v0v0zM196 739h63
v-126h-63v126v0v0v0zM321 739h63v-126h-63v126v0v0v0z" />
    <glyph glyph-name="atilde" unicode="&#xe3;" horiz-adv-x="580" 
d="M527 547v-547h-61v103h-2q-6 -16 -14 -29t-17 -24q-10 -11 -20.5 -20t-22.5 -16t-24.5 -11t-25.5 -8q-13 -3 -26.5 -5t-27.5 -2h-4h-3q-2 1 -4 1h-4h-4h-3q-2 1 -3.5 1h-3.5t-3.5 0.5t-3.5 0.5q-2 1 -3.5 1.5t-3.5 0.5q-4 1 -7.5 1.5t-6.5 1.5q-7 1 -13.5 2.5t-12.5 4.5
q-3 1 -6.5 2.5t-6.5 2.5q-10 5 -19.5 10t-18.5 12q-10 7 -19 14.5t-18 16.5t-17.5 19t-16.5 21q-1 0 -1.5 0.5t-0.5 1.5t-0.5 1.5l-1.5 1.5q-1 2 -2 3.5t-2 3.5t-2.5 4t-2.5 4t-2 4.5t-2 5.5q-3 6 -6 13t-5 14q-1 3 -1.5 5.5t-1.5 5.5q-2 5 -3.5 11.5t-2.5 12.5
q-2 7 -3.5 14t-2.5 15q0 2 -0.5 4.5t-0.5 5.5q-1 11 -1.5 21.5t-0.5 21.5q0 14 1 27.5t3 26.5q3 13 6.5 25.5t7.5 25.5l10 24t11 22q7 11 14 21l14 20q8 10 17 19t19 17t20 15.5t22 13.5q11 6 23 10.5t25 7.5t27 5t29 2v0v0h0.5h1.5v0h1v0v0h0.5h1.5q6 0 12.5 -1t13.5 -2
t13.5 -2.5t12.5 -3.5t12.5 -4t12.5 -5t12.5 -6t12.5 -6q12 -7 22.5 -16t19.5 -20q9 -10 17 -23t14 -27l2 2v104h61v0v0v0zM284 488q-19 -1 -36.5 -5.5t-34.5 -12.5q-16 -7 -31.5 -19t-28.5 -28q-14 -16 -24.5 -33t-16.5 -37q-7 -19 -10.5 -40t-3.5 -44q0 -22 3.5 -43
t10.5 -40t18 -36.5t24 -32.5q14 -16 29.5 -27t31.5 -19q3 -1 6.5 -2.5t7.5 -2.5q13 -5 27 -7.5t30 -2.5q18 0 35 4t33 12t31 19.5t28 27.5t23 33t17 36q6 18 9.5 38t3.5 42q0 23 -3.5 44t-9.5 40q-7 20 -16.5 37t-22.5 33t-27.5 28t-30.5 20t-34 12t-38 4v2v0v0zM388 700
l25 -48q-2 -4 -5 -7.5t-6 -6.5q-4 -3 -7 -5.5t-6 -4.5q-4 -3 -7.5 -5t-7.5 -4t-7.5 -3.5t-6.5 -2.5q-1 0 -1.5 -0.5l-0.5 -0.5q-1 -1 -1.5 -1h-1.5h-2h-2h-1.5h-2.5h-1.5h-0.5h-0.5h-0.5h-6t-5 1q-3 0 -5.5 0.5t-4.5 1.5q-1 0 -2.5 0.5t-2.5 1.5q-2 0 -3 0.5l-3 1.5
t-4.5 2.5t-5.5 2.5h-1.5h-0.5q-1 0 -1.5 0.5t-0.5 1.5h-1.5t-0.5 1h-1v0h-0.5t-0.5 1l-0.5 0.5l-0.5 0.5q-1 1 -2.5 1.5t-2.5 1.5t-2.5 1.5t-2.5 1.5q-1 0 -2 0.5t-2 1.5q-1 0 -1.5 0.5l-0.5 0.5l-0.5 0.5l-0.5 0.5q-1 1 -2 1.5t-2 0.5t-1.5 0.5l-1.5 1.5h-1.5t-0.5 1h-1v0
q-1 0 -2 0.5t-2 1.5h-1.5t-0.5 1h-1.5h-0.5q-1 0 -2 0.5t-1 1.5q-2 1 -4 1.5t-4 0.5h-2t-2 1h-2h-2h-1v0h-1.5h-0.5h-1.5h-0.5v0v0q-3 -1 -6 -1.5t-7 -2.5q-1 -1 -2.5 -1.5t-2.5 -1.5q-2 -1 -3 -2t-3 -2q-3 -2 -5.5 -4.5l-4.5 -4.5t-4 -4.5t-4 -4.5l-25 51q4 4 8 7.5t8 7.5
t8.5 7.5t8.5 6.5q5 2 10 4.5t10 3.5q5 2 10.5 2.5t11.5 0.5h4t4 -1q2 0 4 -0.5t4 -0.5t3.5 -0.5t3.5 -1.5q2 0 3.5 -0.5t3.5 -1.5t3.5 -2t2.5 -1q2 -1 3.5 -2t2.5 -2q2 -1 3.5 -2t2.5 -1q2 -1 3.5 -2t2.5 -2t2 -1.5t2 -1.5t2.5 -1.5t2.5 -1.5v-0.5t1 -0.5v-1v0h1h2
q0 -1 0.5 -1.5t1.5 -0.5v0h1q0 -1 0.5 -1h0.5q1 -1 2 -1.5t2 -0.5q0 -1 1.5 -1.5t2.5 -0.5l1.5 -1.5t1.5 -0.5h0.5h1.5q0 -1 0.5 -1h1.5t2 -0.5t2 -0.5q0 -1 1 -1h2h2h2h2h2h1.5h0.5h2h2h0.5h1.5t1.5 0.5l1.5 1.5h1.5t1.5 1l0.5 0.5t1.5 0.5q2 1 3.5 1.5t3.5 1.5
q1 0 1.5 0.5l1.5 1.5l0.5 0.5l1.5 1.5q1 0 1.5 0.5l1.5 1.5l0.5 0.5l1.5 1.5q1 0 1.5 0.5l1.5 1.5l0.5 0.5l1.5 1.5l3.5 3.5t3.5 2.5v2v0v0z" />
    <glyph glyph-name="aring" unicode="&#xe5;" horiz-adv-x="580" 
d="M527 547v-547h-61v103h-2q-6 -16 -14 -29t-17 -24q-10 -11 -20.5 -20t-22.5 -16t-24.5 -11t-25.5 -8q-13 -3 -26.5 -5t-27.5 -2h-4h-3q-2 1 -4 1h-4h-4h-3q-2 1 -3.5 1h-3.5t-3.5 0.5t-3.5 0.5q-2 1 -3.5 1.5t-3.5 0.5q-4 1 -7.5 1.5t-6.5 1.5q-7 1 -13.5 2.5t-12.5 4.5
q-3 1 -6.5 2.5t-6.5 2.5q-10 5 -19.5 10t-18.5 12q-10 7 -19 14.5t-18 16.5t-17.5 19t-16.5 21q-1 0 -1.5 0.5t-0.5 1.5t-0.5 1.5l-1.5 1.5q-1 2 -2 3.5t-2 3.5t-2.5 4t-2.5 4t-2 4.5t-2 5.5q-3 6 -6 13t-5 14q-1 3 -1.5 5.5t-1.5 5.5q-2 5 -3.5 11.5t-2.5 12.5
q-2 7 -3.5 14t-2.5 15q0 2 -0.5 4.5t-0.5 5.5q-1 11 -1.5 21.5t-0.5 21.5q0 14 1 27.5t3 26.5q3 13 6.5 25.5t7.5 25.5l10 24t11 22q7 11 14 21l14 20q8 10 17 19t19 17t20 15.5t22 13.5q11 6 23 10.5t25 7.5t27 5t29 2v0v0h0.5h1.5v0h1v0v0h0.5h1.5q6 0 12.5 -1t13.5 -2
t13.5 -2.5t12.5 -3.5t12.5 -4t12.5 -5t12.5 -6t12.5 -6q12 -7 22.5 -16t19.5 -20q9 -10 17 -23t14 -27l2 2v104h61v0v0v0zM284 488q-19 -1 -36.5 -5.5t-34.5 -12.5q-16 -7 -31.5 -19t-28.5 -28q-14 -16 -24.5 -33t-16.5 -37q-7 -19 -10.5 -40t-3.5 -44q0 -22 3.5 -43
t10.5 -40t18 -36.5t24 -32.5q14 -16 29.5 -27t31.5 -19q3 -1 6.5 -2.5t7.5 -2.5q13 -5 27 -7.5t30 -2.5q18 0 35 4t33 12t31 19.5t28 27.5t23 33t17 36q6 18 9.5 38t3.5 42q0 23 -3.5 44t-9.5 40q-7 20 -16.5 37t-22.5 33t-27.5 28t-30.5 20t-34 12t-38 4v2v0v0zM290 797
q3 0 5.5 -1t4.5 -1q5 -2 10.5 -3.5t9.5 -3.5q7 -3 13.5 -8t11.5 -12q6 -7 10.5 -14.5t6.5 -15.5q3 -8 4.5 -17t1.5 -18q0 -10 -1.5 -18.5t-4.5 -16.5q-2 -8 -6.5 -15.5t-10.5 -14.5q-5 -7 -11.5 -12t-13.5 -8q-4 -2 -9.5 -4t-10.5 -2q-2 -1 -4.5 -1h-5.5q-8 0 -15.5 1.5
t-14.5 5.5q-7 3 -13 8t-12 12t-10.5 14.5t-6.5 15.5q-3 8 -4.5 16.5t-1.5 18.5q0 9 1.5 18t4.5 17q2 8 6.5 15.5t10.5 14.5t12 12t13 8t14.5 5t15.5 2v2v0v0zM290 760q-5 -1 -9.5 -2.5t-8.5 -3.5t-8 -5t-7 -7q-4 -4 -6 -8t-4 -9t-3 -10.5t-1 -10.5q0 -6 1 -11.5t3 -10.5
t4 -9.5t6 -8.5q3 -4 7 -7t8 -5t8.5 -3t9.5 -1t9.5 1t8.5 3t7.5 5t7.5 7t6.5 8.5t4.5 8.5q0 2 0.5 3.5t0.5 3.5q1 3 1.5 7t0.5 8t-0.5 7t-1.5 7q0 2 -0.5 3.5t-0.5 3.5q-2 5 -4.5 9.5t-6.5 8.5t-7.5 7t-7.5 5t-8.5 3t-9.5 1v2v0v0z" />
    <glyph glyph-name="ccedilla" unicode="&#xe7;" horiz-adv-x="549" 
d="M277 0l-20 -58q0 2 0.5 2.5t1.5 0.5v0h1v0v0v1h1h0.5h1.5l1.5 1.5t1.5 0.5h0.5h1.5q1 1 2 1.5t2 0.5h1h2h1.5h1.5h3h2q6 0 11 -0.5t10 -2.5q2 0 3.5 -0.5t3.5 -1.5q6 -3 11.5 -7t9.5 -10q5 -5 8 -11.5t5 -13.5q2 -8 3.5 -16t1.5 -17t-2 -17.5t-4 -16.5q-3 -8 -7 -15.5
t-9 -14.5q-3 -5 -7.5 -9.5t-9.5 -7.5q-1 -1 -2.5 -2t-3.5 -2q-7 -3 -14 -5t-15 -2q-7 0 -14.5 1.5t-13.5 3.5q-7 3 -12 6t-10 8q-5 4 -9 10t-8 13q-3 7 -5 14.5t-4 15.5l38 4v-2t1 -3q0 -1 0.5 -2.5t1.5 -2.5q0 -1 0.5 -1.5l0.5 -0.5q1 -2 2.5 -3.5l3.5 -3.5l2 -2l2 -2h1
l1 -1q1 0 1.5 -1t1.5 -1q1 -1 2.5 -1.5t2.5 -1.5q1 0 2.5 -0.5t2.5 -1.5v0h1v0v0h0.5h1.5v0v0h0.5h1.5v0v0h0.5t1.5 -1v0h1v0v0h0.5h1.5q4 0 7.5 1t6.5 3q1 0 2 1l2 2q2 1 4.5 3t3.5 4q2 4 4.5 7.5t3.5 7.5t1.5 8.5t0.5 9.5q0 3 -0.5 6.5t-1.5 6.5q0 1 -0.5 2.5t-0.5 2.5
q-1 4 -3.5 8t-5.5 7q-3 4 -6 6.5t-7 4.5q-2 1 -4 1.5t-4 0.5q-2 1 -4 1h-4h-2.5h-2.5q-2 0 -3 -0.5t-3 -0.5q-2 -1 -4 -2.5t-4 -2.5t-3.5 -2t-2.5 -2l-1.5 -1.5l-1.5 -1.5q-1 -2 -2.5 -4t-3.5 -5l-26 16l34 90h31v0v0v0zM446 160h69q-8 -21 -17.5 -39t-21.5 -34
q-11 -16 -24 -30t-27 -25q-16 -12 -31.5 -20.5t-32.5 -12.5q-17 -5 -35 -8t-37 -3q-25 0 -49.5 5t-47.5 13q-22 10 -42.5 25t-39.5 35t-33 43.5t-23 48.5q-10 26 -14.5 54.5t-4.5 59.5q0 30 4.5 58.5t14.5 53.5q9 26 23.5 48.5t33.5 42.5t39 35.5t42 25.5q22 11 46 16t49 5
q18 0 36 -3t35 -9t34 -15t33 -21q17 -12 30 -26t25 -31q11 -16 20 -34.5t16 -38.5l-70 2q-7 11 -14 21.5t-15 20.5q-8 9 -17.5 18t-20.5 16q-4 2 -7.5 4t-7.5 4q-7 4 -14.5 7.5t-15.5 5.5q-6 2 -11.5 3.5t-11.5 2.5t-11.5 1.5t-11.5 0.5q-20 0 -38 -4t-35 -12
q-16 -7 -31.5 -18.5t-29.5 -26.5q-13 -15 -24 -32t-18 -36t-10.5 -40t-3.5 -44t3.5 -44t10.5 -40q6 -19 16.5 -36.5t23.5 -33.5q14 -16 28.5 -27.5t30.5 -19.5t34 -12t38 -4q13 0 25.5 1.5t24.5 4.5q11 3 22 8t21 12q10 6 19 14t18 18q9 9 17.5 20t15.5 24v2v0v0z" />
    <glyph glyph-name="eacute" unicode="&#xe9;" horiz-adv-x="552" 
d="M519 247h-421q1 -21 4.5 -39.5t10.5 -35.5q8 -16 18 -31.5t23 -29.5q14 -14 28 -24.5t29 -17.5t30.5 -10t31.5 -3v0v0h0.5h1.5v0h1v0v0v0h1v0v0q13 0 25 2t24 6q12 5 24 11t24 14q11 8 21 17.5t18 19.5q8 11 15 23.5t12 26.5l65 2q-6 -22 -14.5 -41t-19.5 -36t-24.5 -32
t-29.5 -29q-16 -13 -32.5 -23.5t-33.5 -16.5q-17 -5 -35 -8.5t-37 -3.5q-25 0 -48.5 5t-45.5 14q-22 10 -41.5 25t-37.5 36q-18 20 -31.5 43.5t-22.5 48.5q-9 26 -13 53.5t-4 57.5q0 29 4 56.5t13 52.5q9 26 22.5 49t31.5 44q17 21 36 37t41 26q22 11 45.5 16t48.5 5
q14 0 27.5 -2t26.5 -5q13 -4 25.5 -9t24.5 -12t23.5 -15.5t21.5 -18.5q11 -10 20.5 -21t17.5 -23t15 -24t12 -24q3 -6 5 -12t5 -12q2 -7 3.5 -13t2.5 -12q2 -13 4.5 -26t3.5 -27q0 -7 0.5 -14t1.5 -14t1.5 -14t0.5 -14v2v0v0zM98 314h358q-3 17 -8.5 33.5t-13.5 31.5
q-7 15 -17.5 29t-23.5 27q-8 9 -17.5 16t-18.5 12q-4 3 -8.5 5.5t-9.5 4.5q-14 6 -29 9.5t-32 3.5q-16 0 -32 -3.5t-31 -9.5q-14 -6 -27.5 -15t-26.5 -21q-13 -13 -23.5 -27t-18.5 -29q-7 -16 -12.5 -33t-8.5 -36v2v0v0zM180 669l163 116l30 -58l-164 -114l-29 56v0v0v0z
" />
    <glyph glyph-name="egrave" unicode="&#xe8;" horiz-adv-x="552" 
d="M519 247h-421q1 -21 4.5 -39.5t10.5 -35.5q8 -16 18 -31.5t23 -29.5q14 -14 28 -24.5t29 -17.5t30.5 -10t31.5 -3v0v0h0.5h1.5v0h1v0v0v0h1v0v0q13 0 25 2t24 6q12 5 24 11t24 14q11 8 21 17.5t18 19.5q8 11 15 23.5t12 26.5l65 2q-6 -22 -14.5 -41t-19.5 -36t-24.5 -32
t-29.5 -29q-16 -13 -32.5 -23.5t-33.5 -16.5q-17 -5 -35 -8.5t-37 -3.5q-25 0 -48.5 5t-45.5 14q-22 10 -41.5 25t-37.5 36q-18 20 -31.5 43.5t-22.5 48.5q-9 26 -13 53.5t-4 57.5q0 29 4 56.5t13 52.5q9 26 22.5 49t31.5 44q17 21 36 37t41 26q22 11 45.5 16t48.5 5
q14 0 27.5 -2t26.5 -5q13 -4 25.5 -9t24.5 -12t23.5 -15.5t21.5 -18.5q11 -10 20.5 -21t17.5 -23t15 -24t12 -24q3 -6 5 -12t5 -12q2 -7 3.5 -13t2.5 -12q2 -13 4.5 -26t3.5 -27q0 -7 0.5 -14t1.5 -14t1.5 -14t0.5 -14v2v0v0zM98 314h358q-3 17 -8.5 33.5t-13.5 31.5
q-7 15 -17.5 29t-23.5 27q-8 9 -17.5 16t-18.5 12q-4 3 -8.5 5.5t-9.5 4.5q-14 6 -29 9.5t-32 3.5q-16 0 -32 -3.5t-31 -9.5q-14 -6 -27.5 -15t-26.5 -21q-13 -13 -23.5 -27t-18.5 -29q-7 -16 -12.5 -33t-8.5 -36v2v0v0zM205 779l169 -108l-29 -58l-167 106l27 60v0v0v0z
" />
    <glyph glyph-name="ecircumflex" unicode="&#xea;" horiz-adv-x="552" 
d="M519 247h-421q1 -21 4.5 -39.5t10.5 -35.5q8 -16 18 -31.5t23 -29.5q14 -14 28 -24.5t29 -17.5t30.5 -10t31.5 -3v0v0h0.5h1.5v0h1v0v0v0h1v0v0q13 0 25 2t24 6q12 5 24 11t24 14q11 8 21 17.5t18 19.5q8 11 15 23.5t12 26.5l65 2q-6 -22 -14.5 -41t-19.5 -36t-24.5 -32
t-29.5 -29q-16 -13 -32.5 -23.5t-33.5 -16.5q-17 -5 -35 -8.5t-37 -3.5q-25 0 -48.5 5t-45.5 14q-22 10 -41.5 25t-37.5 36q-18 20 -31.5 43.5t-22.5 48.5q-9 26 -13 53.5t-4 57.5q0 29 4 56.5t13 52.5q9 26 22.5 49t31.5 44q17 21 36 37t41 26q22 11 45.5 16t48.5 5
q14 0 27.5 -2t26.5 -5q13 -4 25.5 -9t24.5 -12t23.5 -15.5t21.5 -18.5q11 -10 20.5 -21t17.5 -23t15 -24t12 -24q3 -6 5 -12t5 -12q2 -7 3.5 -13t2.5 -12q2 -13 4.5 -26t3.5 -27q0 -7 0.5 -14t1.5 -14t1.5 -14t0.5 -14v2v0v0zM98 314h358q-3 17 -8.5 33.5t-13.5 31.5
q-7 15 -17.5 29t-23.5 27q-8 9 -17.5 16t-18.5 12q-4 3 -8.5 5.5t-9.5 4.5q-14 6 -29 9.5t-32 3.5q-16 0 -32 -3.5t-31 -9.5q-14 -6 -27.5 -15t-26.5 -21q-13 -13 -23.5 -27t-18.5 -29q-7 -16 -12.5 -33t-8.5 -36v2v0v0zM125 613l124 126h54l123 -126h-76l-74 73l-74 -73
h-77v0v0v0z" />
    <glyph glyph-name="edieresis" unicode="&#xeb;" horiz-adv-x="552" 
d="M519 247h-421q1 -21 4.5 -39.5t10.5 -35.5q8 -16 18 -31.5t23 -29.5q14 -14 28 -24.5t29 -17.5t30.5 -10t31.5 -3v0v0h0.5h1.5v0h1v0v0v0h1v0v0q13 0 25 2t24 6q12 5 24 11t24 14q11 8 21 17.5t18 19.5q8 11 15 23.5t12 26.5l65 2q-6 -22 -14.5 -41t-19.5 -36t-24.5 -32
t-29.5 -29q-16 -13 -32.5 -23.5t-33.5 -16.5q-17 -5 -35 -8.5t-37 -3.5q-25 0 -48.5 5t-45.5 14q-22 10 -41.5 25t-37.5 36q-18 20 -31.5 43.5t-22.5 48.5q-9 26 -13 53.5t-4 57.5q0 29 4 56.5t13 52.5q9 26 22.5 49t31.5 44q17 21 36 37t41 26q22 11 45.5 16t48.5 5
q14 0 27.5 -2t26.5 -5q13 -4 25.5 -9t24.5 -12t23.5 -15.5t21.5 -18.5q11 -10 20.5 -21t17.5 -23t15 -24t12 -24q3 -6 5 -12t5 -12q2 -7 3.5 -13t2.5 -12q2 -13 4.5 -26t3.5 -27q0 -7 0.5 -14t1.5 -14t1.5 -14t0.5 -14v2v0v0zM98 314h358q-3 17 -8.5 33.5t-13.5 31.5
q-7 15 -17.5 29t-23.5 27q-8 9 -17.5 16t-18.5 12q-4 3 -8.5 5.5t-9.5 4.5q-14 6 -29 9.5t-32 3.5q-16 0 -32 -3.5t-31 -9.5q-14 -6 -27.5 -15t-26.5 -21q-13 -13 -23.5 -27t-18.5 -29q-7 -16 -12.5 -33t-8.5 -36v2v0v0zM182 739h63v-126h-63v126v0v0v0zM307 739h63v-126
h-63v126v0v0v0z" />
    <glyph glyph-name="iacute" unicode="&#xed;" horiz-adv-x="170" 
d="M53 0v547h63v-547h-63v0v0v0zM-11 669l163 116l29 -58l-164 -114l-28 56v0v0v0z" />
    <glyph glyph-name="igrave" unicode="&#xec;" horiz-adv-x="170" 
d="M53 0v547h63v-547h-63v0v0v0zM14 779l168 -108l-28 -58l-166 106l26 60v0v0v0z" />
    <glyph glyph-name="icircumflex" unicode="&#xee;" horiz-adv-x="170" 
d="M53 0v547h63v-547h-63v0v0v0zM-65 613l122 126h55l123 -126h-77l-73 73l-74 -73h-76v0v0v0z" />
    <glyph glyph-name="idieresis" unicode="&#xef;" horiz-adv-x="170" 
d="M53 0v547h63v-547h-63v0v0v0zM-8 739h62v-126h-62v126v0v0v0zM116 739h63v-126h-63v126v0v0v0z" />
    <glyph glyph-name="ntilde" unicode="&#xf1;" horiz-adv-x="518" 
d="M53 0v547h60v-79h1q7 10 14 19t14 17q8 8 16.5 15.5t16.5 13.5q9 6 19 10.5t20 7.5t21 4.5t22 1.5q6 0 11.5 -0.5t11.5 -0.5q6 -1 11.5 -2t11.5 -3q11 -3 22.5 -7.5t21.5 -10.5q11 -6 21 -13.5t19 -15.5t18 -17.5t17 -20.5l6 -10l6 -10l5.5 -11t4.5 -10t4 -10.5t4 -10.5
q1 -6 2.5 -11.5t2.5 -10.5q2 -11 3.5 -22.5t2.5 -23.5t1 -24.5v-25.5v-286h-62v288v3.5v3.5q-1 2 -1 4v4v9.5v8.5q-1 4 -1.5 8t-0.5 8q0 2 -0.5 4t-0.5 5q-1 2 -1.5 4t-0.5 4q-1 8 -3 16.5t-4 15.5q-3 8 -6.5 15.5t-8.5 14.5q-3 6 -7.5 11t-8.5 10q-2 2 -4 4.5t-4 4.5
q-7 6 -13.5 12t-14.5 10q-8 5 -16.5 8t-16.5 5q-9 2 -17.5 3.5t-16.5 1.5h-1.5h-1.5h-1.5h-1.5h-0.5h-1.5h-1.5h-1.5q-7 -1 -14.5 -2.5t-14.5 -4.5q-8 -3 -15 -6t-14 -8q-7 -4 -13.5 -9.5t-11.5 -11.5q-6 -6 -10.5 -12t-9.5 -13l-4 -6t-3 -6l-3.5 -7t-2.5 -6
q-3 -7 -4.5 -13.5t-2.5 -13.5t-2 -13.5t-1 -14.5q-1 -7 -1 -14v-14q-1 -1 -1 -2v-2v-2v-2v-2v-2v-2v-2v-1.5v-1.5v-1.5v-0.5v-1.5v-0.5v-1.5v-0.5v-286h-63v0v0v0zM357 700l26 -48q-3 -4 -6 -7.5t-6 -6.5q-1 -1 -3 -2.5t-3 -2.5q-2 -2 -3.5 -3t-3.5 -2q-4 -3 -7.5 -5
t-7.5 -4q-2 -1 -3.5 -2t-3.5 -2q-2 0 -3.5 -1t-3.5 -1q-1 -1 -2 -1.5t-3 -0.5h-1.5h-1.5h-2h-2h-2h-2h-2.5h-2.5q-2 0 -3 0.5t-3 0.5h-2.5t-2.5 1q-1 0 -2.5 0.5t-2.5 0.5t-2.5 0.5t-2.5 1.5q-1 0 -2.5 0.5t-2.5 1.5q-3 1 -5.5 2.5t-4.5 2.5h-1.5h-1.5t-1.5 0.5t-0.5 1.5
h-0.5t-0.5 1h-1v0q-1 0 -1.5 0.5l-1.5 1.5q-1 0 -1.5 0.5t-0.5 1.5q-1 0 -1.5 0.5t-1.5 0.5t-1.5 0.5t-0.5 1.5q-1 0 -1.5 0.5t-1.5 0.5t-2 0.5t-1 1.5q-1 0 -2 0.5t-2 1.5t-1.5 1t-0.5 1h-0.5h-0.5q-1 0 -2 0.5t-2 1.5h-0.5t-0.5 1h-1.5h-0.5q-1 0 -2 0.5t-1 1.5h-1.5
t-1.5 1h-1.5h-0.5q-1 0 -1.5 0.5l-1.5 1.5q-1 0 -2 0.5t-2 0.5q-1 1 -2 1h-2h-2t-1 1h-2h-2h-1.5h-0.5h-1.5h-0.5h-1v0v0v0q-4 -1 -7 -1.5t-6 -2.5q-3 -1 -6 -3t-5 -4q-4 -2 -6 -4.5t-4 -4.5q-2 -1 -3.5 -2.5t-2.5 -3.5l-1.5 -1.5l-1.5 -1.5l-25 51q4 4 8.5 7.5t8.5 7.5
t8.5 7.5t8.5 6.5l9 4.5t10 3.5q3 1 5.5 1.5t5.5 0.5q3 1 5.5 1h5.5h4t4 -1q2 0 4 -0.5t4 -0.5q4 -1 7.5 -1.5t6.5 -2.5q2 -1 3.5 -2t2.5 -1q2 -1 3.5 -2t3.5 -2q1 -1 2.5 -2t2.5 -1q2 -1 3.5 -2t3.5 -2q0 -1 1 -1.5t2 -1.5q1 0 1.5 -0.5t1.5 -0.5q0 -1 0.5 -1.5t1.5 -0.5
q0 -1 0.5 -1.5t1.5 -0.5h0.5h1.5q0 -1 0.5 -1.5t1.5 -0.5h0.5h1.5q0 -1 0.5 -1h0.5q0 -1 1 -1.5t2 -0.5l0.5 -0.5t1.5 -0.5q1 -1 1.5 -1h0.5q1 -1 2 -1.5t2 -0.5v0h1q0 -1 0.5 -1h1.5t2 -0.5t2 -0.5q1 -1 2 -1h2h2h2h1h2h1.5h1.5h1.5h1.5h1h2t1.5 0.5t0.5 1.5q2 0 3 0.5
t2 1.5q1 0 2 0.5t2 1.5l1 0.5t2 0.5q2 1 3 2l2 2q2 1 3 2l2 2q2 1 3.5 2t2.5 2l2 2l2 2q0 1 1 1.5l1 0.5v2v0v0z" />
    <glyph glyph-name="oacute" unicode="&#xf3;" horiz-adv-x="556" 
d="M279 559q24 -1 46.5 -6.5t43.5 -16.5q21 -10 41 -26t38 -37t31.5 -44t22.5 -48t14 -51t5 -55t-4.5 -56t-13.5 -53q-9 -25 -22.5 -49t-30.5 -45q-18 -22 -37 -37.5t-41 -26.5q-22 -10 -45 -15t-48 -5t-48 5t-44 14q-22 10 -42 25t-38 36q-18 20 -31.5 43t-22.5 48
t-13.5 52t-4.5 57q0 29 4 57t13 53q9 26 22.5 49t31.5 45q18 21 37.5 37t41.5 26q22 11 45.5 16.5t48.5 5.5v2v0v0zM279 488q-19 -1 -37 -6t-34 -13t-30.5 -20t-27.5 -28t-23 -33.5t-16 -37.5q-7 -19 -10 -39.5t-3 -42.5t3 -42.5t10 -39.5q6 -19 16.5 -36t23.5 -32
q14 -16 28 -27.5t30 -19.5q17 -7 34 -11t36 -4q20 0 37.5 4t33.5 12t30.5 20.5t27.5 28.5q12 16 21 33.5t16 36.5q6 20 9.5 41t3.5 43q0 11 -1 22t-3 21q-1 10 -4 19.5t-6 19.5q-3 9 -7 18t-9 18q-5 8 -11 16.5t-14 16.5q-4 5 -8.5 9t-9.5 8q-2 2 -4.5 4t-4.5 4
q-7 5 -14.5 10t-15.5 9t-16.5 7t-16.5 5q-9 2 -17.5 3t-16.5 1v2v0v0zM181 669l164 116l29 -58l-164 -114l-29 56v0v0v0z" />
    <glyph glyph-name="ograve" unicode="&#xf2;" horiz-adv-x="556" 
d="M279 559q24 -1 46.5 -6.5t43.5 -16.5q21 -10 41 -26t38 -37t31.5 -44t22.5 -48t14 -51t5 -55t-4.5 -56t-13.5 -53q-9 -25 -22.5 -49t-30.5 -45q-18 -22 -37 -37.5t-41 -26.5q-22 -10 -45 -15t-48 -5t-48 5t-44 14q-22 10 -42 25t-38 36q-18 20 -31.5 43t-22.5 48
t-13.5 52t-4.5 57q0 29 4 57t13 53q9 26 22.5 49t31.5 45q18 21 37.5 37t41.5 26q22 11 45.5 16.5t48.5 5.5v2v0v0zM279 488q-19 -1 -37 -6t-34 -13t-30.5 -20t-27.5 -28t-23 -33.5t-16 -37.5q-7 -19 -10 -39.5t-3 -42.5t3 -42.5t10 -39.5q6 -19 16.5 -36t23.5 -32
q14 -16 28 -27.5t30 -19.5q17 -7 34 -11t36 -4q20 0 37.5 4t33.5 12t30.5 20.5t27.5 28.5q12 16 21 33.5t16 36.5q6 20 9.5 41t3.5 43q0 11 -1 22t-3 21q-1 10 -4 19.5t-6 19.5q-3 9 -7 18t-9 18q-5 8 -11 16.5t-14 16.5q-4 5 -8.5 9t-9.5 8q-2 2 -4.5 4t-4.5 4
q-7 5 -14.5 10t-15.5 9t-16.5 7t-16.5 5q-9 2 -17.5 3t-16.5 1v2v0v0zM208 779l168 -108l-28 -58l-167 106l27 60v0v0v0z" />
    <glyph glyph-name="ocircumflex" unicode="&#xf4;" horiz-adv-x="556" 
d="M279 559q24 -1 46.5 -6.5t43.5 -16.5q21 -10 41 -26t38 -37t31.5 -44t22.5 -48t14 -51t5 -55t-4.5 -56t-13.5 -53q-9 -25 -22.5 -49t-30.5 -45q-18 -22 -37 -37.5t-41 -26.5q-22 -10 -45 -15t-48 -5t-48 5t-44 14q-22 10 -42 25t-38 36q-18 20 -31.5 43t-22.5 48
t-13.5 52t-4.5 57q0 29 4 57t13 53q9 26 22.5 49t31.5 45q18 21 37.5 37t41.5 26q22 11 45.5 16.5t48.5 5.5v2v0v0zM279 488q-19 -1 -37 -6t-34 -13t-30.5 -20t-27.5 -28t-23 -33.5t-16 -37.5q-7 -19 -10 -39.5t-3 -42.5t3 -42.5t10 -39.5q6 -19 16.5 -36t23.5 -32
q14 -16 28 -27.5t30 -19.5q17 -7 34 -11t36 -4q20 0 37.5 4t33.5 12t30.5 20.5t27.5 28.5q12 16 21 33.5t16 36.5q6 20 9.5 41t3.5 43q0 11 -1 22t-3 21q-1 10 -4 19.5t-6 19.5q-3 9 -7 18t-9 18q-5 8 -11 16.5t-14 16.5q-4 5 -8.5 9t-9.5 8q-2 2 -4.5 4t-4.5 4
q-7 5 -14.5 10t-15.5 9t-16.5 7t-16.5 5q-9 2 -17.5 3t-16.5 1v2v0v0zM128 613l123 126h55l123 -126h-77l-74 73l-74 -73h-76v0v0v0z" />
    <glyph glyph-name="odieresis" unicode="&#xf6;" horiz-adv-x="556" 
d="M279 559q24 -1 46.5 -6.5t43.5 -16.5q21 -10 41 -26t38 -37t31.5 -44t22.5 -48t14 -51t5 -55t-4.5 -56t-13.5 -53q-9 -25 -22.5 -49t-30.5 -45q-18 -22 -37 -37.5t-41 -26.5q-22 -10 -45 -15t-48 -5t-48 5t-44 14q-22 10 -42 25t-38 36q-18 20 -31.5 43t-22.5 48
t-13.5 52t-4.5 57q0 29 4 57t13 53q9 26 22.5 49t31.5 45q18 21 37.5 37t41.5 26q22 11 45.5 16.5t48.5 5.5v2v0v0zM279 488q-19 -1 -37 -6t-34 -13t-30.5 -20t-27.5 -28t-23 -33.5t-16 -37.5q-7 -19 -10 -39.5t-3 -42.5t3 -42.5t10 -39.5q6 -19 16.5 -36t23.5 -32
q14 -16 28 -27.5t30 -19.5q17 -7 34 -11t36 -4q20 0 37.5 4t33.5 12t30.5 20.5t27.5 28.5q12 16 21 33.5t16 36.5q6 20 9.5 41t3.5 43q0 11 -1 22t-3 21q-1 10 -4 19.5t-6 19.5q-3 9 -7 18t-9 18q-5 8 -11 16.5t-14 16.5q-4 5 -8.5 9t-9.5 8q-2 2 -4.5 4t-4.5 4
q-7 5 -14.5 10t-15.5 9t-16.5 7t-16.5 5q-9 2 -17.5 3t-16.5 1v2v0v0zM184 739h63v-126h-63v126v0v0v0zM309 739h63v-126h-63v126v0v0v0z" />
    <glyph glyph-name="otilde" unicode="&#xf5;" horiz-adv-x="556" 
d="M279 559q24 -1 46.5 -6.5t43.5 -16.5q21 -10 41 -26t38 -37t31.5 -44t22.5 -48t14 -51t5 -55t-4.5 -56t-13.5 -53q-9 -25 -22.5 -49t-30.5 -45q-18 -22 -37 -37.5t-41 -26.5q-22 -10 -45 -15t-48 -5t-48 5t-44 14q-22 10 -42 25t-38 36q-18 20 -31.5 43t-22.5 48
t-13.5 52t-4.5 57q0 29 4 57t13 53q9 26 22.5 49t31.5 45q18 21 37.5 37t41.5 26q22 11 45.5 16.5t48.5 5.5v2v0v0zM279 488q-19 -1 -37 -6t-34 -13t-30.5 -20t-27.5 -28t-23 -33.5t-16 -37.5q-7 -19 -10 -39.5t-3 -42.5t3 -42.5t10 -39.5q6 -19 16.5 -36t23.5 -32
q14 -16 28 -27.5t30 -19.5q17 -7 34 -11t36 -4q20 0 37.5 4t33.5 12t30.5 20.5t27.5 28.5q12 16 21 33.5t16 36.5q6 20 9.5 41t3.5 43q0 11 -1 22t-3 21q-1 10 -4 19.5t-6 19.5q-3 9 -7 18t-9 18q-5 8 -11 16.5t-14 16.5q-4 5 -8.5 9t-9.5 8q-2 2 -4.5 4t-4.5 4
q-7 5 -14.5 10t-15.5 9t-16.5 7t-16.5 5q-9 2 -17.5 3t-16.5 1v2v0v0zM376 700l26 -48q-3 -4 -6 -7.5t-6 -6.5q-4 -3 -7 -5.5t-6 -4.5q-4 -3 -7.5 -5t-7.5 -4t-7.5 -3.5t-6.5 -2.5q-1 0 -1.5 -0.5l-0.5 -0.5q-1 -1 -1.5 -1h-1.5h-2h-1h-1.5h-0.5h-1.5h-1.5h-1.5h-1.5h-6
t-5 1q-3 0 -5.5 0.5t-4.5 1.5q-1 0 -2.5 0.5t-2.5 1.5q-2 0 -3 0.5l-3 1.5t-4.5 2.5t-5.5 2.5h-0.5h-0.5h-0.5h-0.5q-1 0 -1.5 0.5t-0.5 1.5h-1.5t-0.5 1h-1v0l-0.5 0.5l-1.5 1.5t-2.5 1.5t-2.5 1.5t-2.5 1.5t-2.5 1.5q-1 0 -2 0.5t-2 1.5q-1 0 -1.5 0.5l-1.5 1.5t-2 1.5
t-2 0.5t-1.5 0.5l-1.5 1.5h-1.5t-0.5 1v0v0h-0.5h-0.5q-1 0 -2 0.5t-2 1.5h-0.5t-1.5 1h-1.5h-0.5q-1 0 -2 0.5t-1 1.5q-1 0 -2 0.5t-2 0.5q-1 1 -2 1h-2h-2t-2 1h-2h-2h-1v0h-1.5h-0.5h-1.5h-0.5v0v0q-3 -1 -6 -1.5t-7 -2.5q-1 -1 -2.5 -1.5t-2.5 -1.5q-2 -1 -3 -2t-3 -2
q-3 -2 -5.5 -4.5l-4.5 -4.5t-4 -4.5t-4 -4.5l-25 51q4 4 8 7.5t8 7.5t8.5 7.5t8.5 6.5q5 2 10 4.5t10 3.5q5 2 10.5 2.5t11.5 0.5h4t4 -1q2 0 4 -0.5t4 -0.5t3.5 -0.5t3.5 -1.5q2 0 3.5 -0.5t3.5 -1.5t3.5 -2t2.5 -1q2 -1 3.5 -2t2.5 -2q2 -1 3.5 -2t2.5 -1q2 -1 3.5 -2
t2.5 -2t2 -1.5t2 -1.5t2.5 -1.5t2.5 -1.5v-0.5t1 -0.5v-1v0h1h2q0 -1 0.5 -1.5t1.5 -0.5h0.5h0.5q0 -1 0.5 -1h0.5q1 -1 2 -1.5t2 -0.5q1 -1 2 -1.5t2 -0.5l1.5 -1.5t1.5 -0.5h0.5h1.5q0 -1 0.5 -1h1.5t2 -0.5t2 -0.5q0 -1 1 -1h2h2h2h2h2h1.5h1.5h1h2h1h2l0.5 0.5l1.5 1.5
h1.5t1.5 1l0.5 0.5t1.5 0.5q2 1 3.5 1.5t3.5 1.5q1 0 1.5 0.5l1.5 1.5l0.5 0.5l1.5 1.5q1 0 1.5 0.5l1.5 1.5l0.5 0.5l1.5 1.5q2 1 3 2l2 2t2 1.5t2 1.5q0 1 1 1.5t2 1.5v2v0v0z" />
    <glyph glyph-name="uacute" unicode="&#xfa;" horiz-adv-x="516" 
d="M463 547v-547h-60v85h-1q-6 -14 -13 -26t-15 -21q-7 -10 -16 -17.5t-19 -12.5t-21 -8l-22 -6t-22.5 -4.5t-24.5 -1.5q-9 0 -18 1t-18 3q-9 1 -18 3.5t-17 4.5q-8 3 -16.5 8t-16.5 11t-16 14t-16 17l-4 4t-3 4q-2 2 -3.5 4t-3.5 4t-3.5 4t-3.5 4q-1 2 -2.5 4.5t-3.5 4.5
q-5 6 -9.5 14t-8.5 17t-5.5 19t-3.5 22q-2 11 -3 23t-2 25t-1 26.5v26.5v291h63v-289v-17t1 -16q0 -8 0.5 -15.5t1.5 -15.5t2.5 -15.5t3.5 -15.5q2 -7 4.5 -14t6.5 -14q5 -10 10.5 -18t11.5 -16q7 -7 14 -13.5t15 -11.5t16.5 -9t17.5 -6q9 -3 18 -4t19 -1q8 0 16.5 1t15.5 3
q8 2 16 5.5t16 7.5q7 5 13.5 10t13.5 11q6 6 12 13.5t11 15.5q5 7 8.5 14.5t5.5 15.5q3 8 5.5 16t3.5 17q1 8 1.5 16.5t1.5 17.5t1.5 18t0.5 18v291h63v0v0v0zM162 669l163 116l30 -58l-164 -114l-29 56v0v0v0z" />
    <glyph glyph-name="ugrave" unicode="&#xf9;" horiz-adv-x="516" 
d="M463 547v-547h-60v85h-1q-6 -14 -13 -26t-15 -21q-7 -10 -16 -17.5t-19 -12.5t-21 -8l-22 -6t-22.5 -4.5t-24.5 -1.5q-9 0 -18 1t-18 3q-9 1 -18 3.5t-17 4.5q-8 3 -16.5 8t-16.5 11t-16 14t-16 17l-4 4t-3 4q-2 2 -3.5 4t-3.5 4t-3.5 4t-3.5 4q-1 2 -2.5 4.5t-3.5 4.5
q-5 6 -9.5 14t-8.5 17t-5.5 19t-3.5 22q-2 11 -3 23t-2 25t-1 26.5v26.5v291h63v-289v-17t1 -16q0 -8 0.5 -15.5t1.5 -15.5t2.5 -15.5t3.5 -15.5q2 -7 4.5 -14t6.5 -14q5 -10 10.5 -18t11.5 -16q7 -7 14 -13.5t15 -11.5t16.5 -9t17.5 -6q9 -3 18 -4t19 -1q8 0 16.5 1t15.5 3
q8 2 16 5.5t16 7.5q7 5 13.5 10t13.5 11q6 6 12 13.5t11 15.5q5 7 8.5 14.5t5.5 15.5q3 8 5.5 16t3.5 17q1 8 1.5 16.5t1.5 17.5t1.5 18t0.5 18v291h63v0v0v0zM187 779l169 -108l-28 -58l-168 106l27 60v0v0v0z" />
    <glyph glyph-name="ucircumflex" unicode="&#xfb;" horiz-adv-x="516" 
d="M463 547v-547h-60v85h-1q-6 -14 -13 -26t-15 -21q-7 -10 -16 -17.5t-19 -12.5t-21 -8l-22 -6t-22.5 -4.5t-24.5 -1.5q-9 0 -18 1t-18 3q-9 1 -18 3.5t-17 4.5q-8 3 -16.5 8t-16.5 11t-16 14t-16 17l-4 4t-3 4q-2 2 -3.5 4t-3.5 4t-3.5 4t-3.5 4q-1 2 -2.5 4.5t-3.5 4.5
q-5 6 -9.5 14t-8.5 17t-5.5 19t-3.5 22q-2 11 -3 23t-2 25t-1 26.5v26.5v291h63v-289v-17t1 -16q0 -8 0.5 -15.5t1.5 -15.5t2.5 -15.5t3.5 -15.5q2 -7 4.5 -14t6.5 -14q5 -10 10.5 -18t11.5 -16q7 -7 14 -13.5t15 -11.5t16.5 -9t17.5 -6q9 -3 18 -4t19 -1q8 0 16.5 1t15.5 3
q8 2 16 5.5t16 7.5q7 5 13.5 10t13.5 11q6 6 12 13.5t11 15.5q5 7 8.5 14.5t5.5 15.5q3 8 5.5 16t3.5 17q1 8 1.5 16.5t1.5 17.5t1.5 18t0.5 18v291h63v0v0v0zM107 613l124 126h54l123 -126h-76l-74 73l-74 -73h-77v0v0v0z" />
    <glyph glyph-name="udieresis" unicode="&#xfc;" horiz-adv-x="516" 
d="M463 547v-547h-60v85h-1q-6 -14 -13 -26t-15 -21q-7 -10 -16 -17.5t-19 -12.5t-21 -8l-22 -6t-22.5 -4.5t-24.5 -1.5q-9 0 -18 1t-18 3q-9 1 -18 3.5t-17 4.5q-8 3 -16.5 8t-16.5 11t-16 14t-16 17l-4 4t-3 4q-2 2 -3.5 4t-3.5 4t-3.5 4t-3.5 4q-1 2 -2.5 4.5t-3.5 4.5
q-5 6 -9.5 14t-8.5 17t-5.5 19t-3.5 22q-2 11 -3 23t-2 25t-1 26.5v26.5v291h63v-289v-17t1 -16q0 -8 0.5 -15.5t1.5 -15.5t2.5 -15.5t3.5 -15.5q2 -7 4.5 -14t6.5 -14q5 -10 10.5 -18t11.5 -16q7 -7 14 -13.5t15 -11.5t16.5 -9t17.5 -6q9 -3 18 -4t19 -1q8 0 16.5 1t15.5 3
q8 2 16 5.5t16 7.5q7 5 13.5 10t13.5 11q6 6 12 13.5t11 15.5q5 7 8.5 14.5t5.5 15.5q3 8 5.5 16t3.5 17q1 8 1.5 16.5t1.5 17.5t1.5 18t0.5 18v291h63v0v0v0zM164 739h63v-126h-63v126v0v0v0zM289 739h63v-126h-63v126v0v0v0z" />
    <glyph glyph-name="dagger" unicode="&#x2020;" horiz-adv-x="470" 
d="M266 739v-200h153v-67h-153v-599h-63v599h-153v67h153v200h63v0v0v0z" />
    <glyph glyph-name="degree" horiz-adv-x="282" 
d="M141 797q8 -1 15 -3.5t14 -5.5q8 -3 14 -8t12 -12t10 -14.5t7 -15.5q2 -8 4 -17t2 -18q0 -10 -2 -18.5t-4 -16.5q-3 -8 -7 -15.5t-10 -14.5t-12 -12t-14 -8q-7 -4 -14 -5.5t-15 -1.5t-16 1.5t-14 5.5q-7 3 -13.5 8t-12.5 12q-5 7 -9.5 14.5t-7.5 15.5t-4.5 16.5
t-1.5 18.5q0 9 1.5 18t4.5 17t7.5 15.5t9.5 14.5q6 7 12.5 12t13.5 8q6 3 14 5t16 2v2v0v0zM141 760q-5 -1 -9.5 -2.5t-8.5 -3.5t-8 -5t-8 -7t-6 -8t-4 -9q-1 -5 -2 -10.5t-1 -10.5q0 -6 1 -11.5t2 -10.5q2 -5 4 -9.5t6 -8.5t7.5 -7t7.5 -5t9 -3t10 -1t9 1t8 3q5 2 8.5 5
t7.5 7q3 4 5.5 8.5t4.5 8.5q2 5 2.5 10.5t0.5 11.5q0 5 -0.5 10.5t-2.5 10.5t-4.5 9.5t-5.5 8.5q-4 4 -7.5 7t-8.5 5q-4 2 -8 3t-9 1v2v0v0z" />
    <glyph glyph-name="cent" unicode="&#xa2;" horiz-adv-x="470" 
d="M221 62v89q-20 0 -38 5t-34 14t-31 22.5t-28 31.5q-13 17 -23 36t-16 39q-7 20 -10 41.5t-3 43.5t3 42.5t10 39.5t17 37t24 35t29 29.5t31 21.5t33 14.5t36 6.5v95h56v-93q13 -3 25.5 -7.5t24.5 -10.5t23.5 -14t22.5 -19q11 -10 20 -22t16 -24q8 -13 13.5 -26.5
t9.5 -28.5l-70 2q-4 9 -9.5 17t-12.5 15q-6 8 -13.5 14t-15.5 11t-16.5 8.5t-17.5 6.5q-4 1 -9 2t-9 2q-5 0 -9.5 0.5t-9.5 0.5q-14 0 -27 -3t-25 -9t-23 -14.5t-22 -19.5q-10 -11 -18.5 -23.5t-13.5 -26.5t-7.5 -29t-2.5 -31q0 -17 2.5 -33t7.5 -30t13 -27t18 -25
q11 -12 22 -21t24 -15q12 -6 25.5 -9t28.5 -3q8 0 16.5 1t16.5 3q4 1 8 2.5t8 3.5q3 2 7 4l8 4q8 5 15 10t13 11q7 6 13 13.5t12 15.5l68 2q-4 -15 -10 -28t-13 -25t-16 -22.5t-20 -19.5q-4 -3 -7.5 -6t-7.5 -6q-7 -6 -14.5 -10.5t-15.5 -8.5q-11 -6 -22.5 -9.5t-23.5 -5.5
v-87h-56v0v0v0z" />
    <glyph glyph-name="sterling" unicode="&#xa3;" horiz-adv-x="470" 
d="M49 0v67h118q3 2 6 5.5t6 7.5q2 4 4.5 8.5t3.5 9.5l4 10t3 10q2 5 3 10.5t2 10.5v2t1 3v2.5v2.5q0 2 0.5 4.5t1.5 5.5v2v2v1.5t1 1.5v1.5v1.5v0.5t1 1.5v0.5v1.5v1.5v1.5v0.5v1.5q-1 13 -2.5 25t-3.5 23q-3 11 -6.5 21t-8.5 19q-5 8 -10.5 16.5t-12.5 17.5q-6 8 -13 16.5
t-15 16.5h-0.5t-0.5 1h-1v0v0.5v1.5h-1.5h-0.5q-1 0 -1.5 0.5t-0.5 1.5l-1.5 1.5t-0.5 1.5l-1.5 1.5l-1.5 1.5l-106 2v67h62q-2 5 -3.5 10t-3.5 10q-1 5 -2.5 11t-3.5 12q-1 5 -2 11l-2 12t-1 12v12v4v4v4v4v4.5t1 4.5q0 2 0.5 4.5t1.5 4.5q0 4 0.5 8t1.5 8q1 5 2 9.5t2 8.5
t2.5 8t2.5 8q0 2 1 4t1 5l2 4l2 4q3 8 6.5 16t7.5 15q4 8 8 14.5t9 13.5q7 11 15 20t16 17q9 8 19 14.5t20 11.5t20.5 9t20.5 7q11 3 22.5 4.5t23.5 2.5q19 -1 37 -5t35 -12q17 -7 32.5 -18.5t30.5 -26.5t26.5 -32t20.5 -36t14.5 -39t6.5 -42l-59 2q-2 14 -6.5 27t-11.5 25
q-6 12 -14 23.5t-19 21.5q-10 10 -21 17.5t-22 12.5q-12 5 -24 8t-25 3q-16 0 -30.5 -3.5t-27.5 -9.5t-24.5 -15.5t-21.5 -21.5q-11 -13 -19.5 -27t-13.5 -29t-7.5 -32t-1.5 -35v-1.5v-0.5v0v0v-1v0v-1.5v-0.5v0v0v-1v0v-1.5v-1.5v-1.5v-1.5v-1.5v-1.5v-1.5v-1.5
q0 -5 0.5 -10t1.5 -10t2.5 -10t2.5 -10t2.5 -9.5t4.5 -9.5q2 -4 4 -8.5t6 -8.5l241 2v-67h-182q5 -6 8.5 -12t7.5 -12q2 -3 4 -6.5t4 -6.5q5 -10 10.5 -19.5t9.5 -20.5q2 -5 4 -10.5t4 -10.5q1 -6 2.5 -11.5t2.5 -10.5q2 -11 3 -22.5t1 -22.5v-15.5t-1 -15.5
q-1 -7 -2.5 -14.5t-2.5 -14.5q-1 -2 -1.5 -4.5t-1.5 -5.5q-1 -5 -2.5 -9.5t-3.5 -9.5q-1 -3 -2.5 -6.5t-2.5 -6.5q-1 -4 -2.5 -7.5t-2.5 -6.5l21 2l1.5 -1.5t1.5 -0.5h0.5h0.5h0.5h0.5h0.5h1.5h0.5h1.5v0h1v0h1h15.5t14.5 1q8 0 15.5 0.5t14.5 1.5t14 3t14 5t14 7t14 9
q5 5 10.5 11t10.5 12t9 13.5t7 15.5l6 16t4 16q2 8 3 17t1 18v0v1v0v0v0.5v1.5v0v1v0v0v0.5v1.5v2v2v2v2v2v2v2v2q-1 2 -1.5 4t-0.5 4v4v4q-1 2 -1.5 4.5t-0.5 3.5v4t-1 4l61 2q1 -4 1.5 -8t0.5 -8q1 -4 1.5 -7.5t1.5 -7.5v-4t1 -3v-3.5v-3.5v-4t1 -3v-3.5v-3.5
q0 -13 -1.5 -25t-3.5 -23q-2 -12 -5 -22.5t-8 -21.5q-4 -10 -9.5 -20t-11.5 -19q-7 -9 -14 -17t-15 -16q-9 -8 -18 -14.5t-18 -11.5q-4 -2 -9 -4t-9 -3q-5 -2 -9.5 -3t-9.5 -2q-10 -2 -19.5 -3.5t-19.5 -1.5q-10 -1 -20.5 -1h-20.5h-233v0v0v0z" />
    <glyph glyph-name="section" unicode="&#xa7;" horiz-adv-x="522" 
d="M409 606h-59q-1 6 -2.5 12t-3.5 12q-3 5 -6.5 10.5t-8.5 9.5q-4 5 -9 8.5t-10 6.5q-3 2 -5.5 3t-5.5 2t-5.5 2t-5.5 2h-2t-2 1h-1.5h-1.5t-2.5 0.5t-2.5 1.5h-2h-2h-1.5t-0.5 1h-2h-2h-0.5h-1.5h-1.5h-0.5v0v0v0v0v0v0h-1.5h-0.5v0v0v0v0v0v0v0v0v0v0h-1.5h-0.5v0v0h-1v0
h-1.5h-0.5v0v0q-9 0 -17 -2t-15 -5t-13.5 -7.5t-11.5 -10.5q-6 -6 -10.5 -13.5t-6.5 -15.5q-4 -9 -5 -18t-1 -20q0 -9 0.5 -17t3.5 -15q2 -7 5.5 -12.5t7.5 -10.5q5 -5 10 -9.5t10 -8.5t10.5 -8t11.5 -7l107 -61q1 -1 1.5 -2t1.5 -2l0.5 -0.5l0.5 -0.5q0 -1 0.5 -1h0.5v0h1
q0 -1 0.5 -1h0.5h0.5h1.5v-1h1v0h1q9 -6 17.5 -12t16.5 -13t16.5 -14t16.5 -15t13.5 -17t9.5 -20q4 -10 5.5 -22t1.5 -26v-2v-2v-2v-2q-1 -1 -1 -2.5v-2.5v-2v-2v-1.5v-0.5q-1 -1 -1 -1.5v-0.5v-2v-2v-1.5v-1.5q-1 -1 -1 -1.5v-0.5v-2v-2q-2 -8 -4.5 -16.5t-5.5 -16.5
t-6.5 -15.5t-8.5 -15.5q-4 -7 -9 -14t-10 -13q-4 -6 -10 -11t-12 -9q5 -4 8.5 -9t7.5 -10t7 -10.5t6 -11.5q2 -3 3 -6l2 -6q0 -2 0.5 -3t0.5 -2q1 -2 1.5 -4t1.5 -4q1 -3 1.5 -6t1.5 -6q1 -4 1.5 -7t1.5 -6v-1.5v-0.5v-1.5v-1.5v-2v-2v-1.5v-0.5v-1.5t1 -0.5v-1.5v-0.5v-1.5
v-0.5q0 -20 -3.5 -37.5t-8.5 -33.5q-7 -16 -16 -30t-20 -26q-12 -12 -25.5 -21t-27.5 -15t-29.5 -9t-32.5 -3q-18 0 -35 3.5t-33 11.5q-15 7 -29 18.5t-26 25.5q-12 15 -21 31.5t-16 33.5q-6 16 -9.5 35.5t-3.5 41.5l59 2q0 -15 2.5 -28t6.5 -24t10 -21t13 -20
q8 -10 16 -17.5t18 -11.5q9 -5 20 -7.5t23 -2.5v0h1v0v0h0.5h1.5v0v0h0.5h1.5h0.5h1.5h0.5h1.5v0v0h0.5h1.5v0v0h0.5h1.5q7 0 12.5 1t11.5 2l6 2l6 2q8 4 15.5 9t14.5 12t12 15t9 17q4 7 5.5 18t1.5 24q0 8 -1.5 16t-3.5 15t-6 13t-9 11l-3.5 3.5l-3.5 3.5q-4 3 -7.5 6.5
l-6.5 6.5q-5 5 -11 9l-12 8q-1 0 -1.5 0.5l-1.5 1.5q-1 0 -2 0.5t-1 1.5h-1.5t-1.5 1q-1 0 -1.5 0.5t-0.5 1.5q-1 0 -2 0.5t-2 1.5q-1 0 -1.5 0.5t-0.5 1.5h-2t-2 1q-1 0 -1.5 0.5t-0.5 1.5l-138 86q-7 3 -14 7.5t-12 10.5q-7 5 -12 11t-10 13q-4 7 -7.5 14.5t-5.5 15.5
q-3 8 -4 17.5t-1 19.5q0 12 1.5 24t4.5 22q2 11 6 21t9 20q5 9 11 18t13 17q6 8 13.5 16t16.5 15q-1 1 -1.5 2t-1.5 2q-2 2 -3.5 4.5t-2.5 4.5q-2 3 -4.5 7.5t-4.5 8.5q0 1 -1 2.5t-1 2.5l-2 6l-2 6q-2 5 -3.5 9.5t-1.5 8.5q-1 2 -1.5 4.5t-1.5 4.5t-1 4.5v4.5v0.5v1.5
q-1 0 -1 0.5v1.5v2.5v2.5v2v2v2v2q0 17 3 33t7 31q5 15 13.5 28t19.5 24q10 11 22 19.5t25 14.5q13 5 26 8t28 3h1.5h0.5h2h2q0 -1 0.5 -1h1.5h2h2h1.5h0.5h2h2l0.5 -0.5l0.5 -0.5h0.5h1.5h2h2q6 -1 11.5 -2.5t10.5 -3.5t10.5 -4.5t11.5 -5.5q11 -6 21 -13.5t20 -16.5
q10 -10 17.5 -20.5t12.5 -22.5t7.5 -25.5t3.5 -28.5v2v0v0zM189 270l151 -88q2 1 3.5 2t3.5 2l3.5 3.5l3.5 3.5l3.5 3.5l3.5 3.5q2 3 3.5 5t3.5 5q2 2 3 4.5t3 5.5q1 2 2.5 4.5t2.5 5.5t2 5.5t2 5.5q0 2 1 5l2 6v3.5v2.5q0 2 0.5 3.5t1.5 2.5v1.5v1.5v1.5t1 1.5v1.5v1.5v1.5
v1.5q0 9 -1 17.5t-3 15.5q-3 7 -6 13t-7 10q-4 5 -9.5 9.5t-10.5 8.5q-5 5 -10.5 8.5t-11.5 7.5h-1.5h-0.5v0v0q-1 0 -1 0.5v0.5h-1.5h-0.5v0v1q-1 0 -1 0.5v0.5l-139 85q-5 -4 -10 -9l-10 -10q-4 -5 -8 -11t-7 -12q-4 -7 -6.5 -13.5t-4.5 -13.5t-3 -13.5t-2 -13.5v-1.5
v-1.5v-1.5v-1.5v-1.5v-0.5v-1.5v-0.5q0 -8 1 -15t3 -13t5.5 -11t7.5 -10l8.5 -8.5t9.5 -8.5t9.5 -7.5t10.5 -6.5v2v0v0z" />
    <glyph glyph-name="bullet" horiz-adv-x="515" 
d="M414 300q0 -20 -3 -38t-9 -35q-6 -16 -14.5 -30.5t-19.5 -28.5q-12 -13 -24.5 -23.5t-26.5 -17.5t-29.5 -10t-31.5 -3t-31 3t-29 10t-26.5 17.5t-23.5 23.5q-12 14 -20.5 28.5t-14.5 30.5q-6 17 -8.5 34.5t-2.5 36.5t2.5 37t8.5 34q6 17 14.5 32t20.5 28q11 14 23.5 24
t26.5 17t29 10.5t31 3.5t31.5 -3.5t29.5 -10.5t26.5 -17t24.5 -24q11 -13 19.5 -28t14.5 -32q6 -16 9 -34t3 -37v2v0v0z" />
    <glyph glyph-name="paragraph" unicode="&#xb6;" horiz-adv-x="479" 
d="M194 -127v482q-16 -1 -31.5 2t-29.5 10t-27.5 17.5t-25.5 24.5q-13 14 -22 30t-15 32q-7 17 -9.5 35t-2.5 37q0 10 1 20l2 20q2 11 4.5 20.5t6.5 19.5q3 10 7.5 19t9.5 17t10.5 15.5t12.5 14.5q8 8 16 15t15 11q8 5 16 8.5t16 5.5q4 1 8.5 1.5t8.5 1.5q5 0 9.5 0.5
t8.5 1.5q9 1 18.5 1.5t19.5 1.5l196 2v-866h-63v799h-97v-799h-63v0v0v0z" />
    <glyph glyph-name="germandbls" unicode="&#xdf;" horiz-adv-x="470" 
d="M50 0v468v5v6v6v6v6v6v6.5t1 7.5v16.5t1 17.5q0 5 0.5 9t1.5 9q1 4 1.5 8.5t0.5 8.5q2 8 4 16.5t4 16.5q3 8 7 16.5t8 16.5q5 11 12.5 21t14.5 19q8 9 17 16.5t19 14.5q11 6 21.5 11t20.5 8q11 3 21.5 5t21.5 2q18 0 34.5 -4t32.5 -12q15 -7 29 -19t27 -27q13 -16 22 -33
t16 -35q6 -18 9.5 -37.5t3.5 -39.5q0 -12 -1.5 -24t-3.5 -23t-5 -21.5t-7 -21.5q-4 -10 -10 -20t-12 -18q-7 -8 -15.5 -15t-17.5 -12q14 -6 26 -13t23 -16q10 -9 19.5 -19.5t16.5 -22.5q8 -13 13.5 -26.5t9.5 -27.5q4 -15 6 -30.5t2 -32.5q0 -7 -0.5 -14.5t-1.5 -14.5
q0 -3 -0.5 -6.5t-0.5 -6.5q-1 -10 -3.5 -19.5t-4.5 -18.5q-3 -9 -6.5 -18t-8.5 -17q-4 -9 -10 -17t-13 -16q-6 -7 -12.5 -14t-14.5 -13q-7 -6 -14.5 -11t-15.5 -10q-8 -3 -16.5 -5.5t-17.5 -4.5t-18 -3.5t-18 -1.5h-1.5h-1.5v0v0h-1v0q-1 1 -2 1h-1h-1.5h-0.5h-2.5h-2.5
h-2.5h-2.5q-11 1 -22 4t-22 7q-10 4 -20.5 10t-20.5 14t-18 17t-15 19q-7 11 -12 22.5t-9 24.5l-2 2v-109h-59v0v0v0zM113 203h41v-2v-1v0v0v0v0v0v0v-1v0v0v0v-1.5v-0.5v0v0v0v0v0v0v-1.5v-0.5v0v0v0v0v0v0v-1v0v0v0q0 -13 2 -25.5t6 -24.5t10 -23t15 -22q8 -11 16.5 -19.5
t18.5 -13.5t20.5 -7.5t22.5 -2.5q13 0 24.5 2.5t21.5 7.5q11 5 20.5 13t17.5 18q8 11 14.5 22t10.5 24q4 12 6 26t2 29q0 11 -1.5 20.5t-3.5 19.5t-6 19t-9 18q-5 8 -11 15.5t-12 13.5q-7 6 -14.5 11.5t-15.5 9.5q-5 2 -10 4.5t-10 3.5q-5 2 -10.5 2.5t-10.5 1.5h-2.5
t-2.5 1h-2.5h-2.5h-2.5t-2.5 1h-2.5h-2.5h-3.5t-2.5 1h-3h-2h-2.5h-2.5h-3h-3h-2h-3h-1.5h-1.5h-2h-2h-2h-2q-1 -1 -1.5 -1h-2.5h-1.5h-0.5h-0.5h-0.5h-1.5h-0.5h-1.5h-1.5h-1.5h-1.5l-6 2v67h10l1.5 -1.5t1.5 -0.5h0.5h1.5h0.5h1.5h1.5h1.5h0.5h1.5h1h2v0h1v0v0h0.5t1.5 1
h0.5h0.5q5 0 9.5 1t9.5 2t9.5 2.5t8.5 2.5q5 2 9.5 3.5t8.5 3.5t8.5 5t8.5 7q6 5 11.5 10t9.5 11q5 6 8.5 13t6.5 14q1 2 1.5 3.5t0.5 3.5q2 5 3.5 11t2.5 12q2 8 3 16t1 16q0 14 -2.5 26t-6.5 24t-9.5 23t-13.5 21l-6 6l-6 6q-6 6 -11.5 10.5t-12.5 7.5q-3 1 -5.5 2t-4.5 2
q-8 3 -16 4.5t-17 1.5t-17 -1.5t-16 -3.5q-7 -3 -14 -7t-14 -9t-13 -11t-11 -14q-4 -7 -8.5 -15t-7.5 -17q-1 -5 -2.5 -10t-3.5 -10q-1 -4 -1.5 -9.5t-1.5 -10.5t-1.5 -10.5t-1.5 -10.5t-1 -10.5v-10.5v-2.5v-3.5v-2.5v-2.5v-2.5v-3.5v-2.5v-3.5v-6v-6v-5.5v-4.5v-1.5v-0.5
v-1.5v-0.5v-1.5v-0.5v0v0v-1v0v-263v0v0v0z" />
    <glyph glyph-name="registered" unicode="&#xae;" horiz-adv-x="634" 
d="M317 -13q-34 1 -65 7.5t-60 19.5q-29 14 -55 34.5t-50 48.5q-23 28 -41 59t-29 65q-12 34 -16.5 70.5t-4.5 76.5q0 39 4.5 75.5t16.5 70.5q11 34 29 64.5t41 58.5q24 28 50 49t55 35t60 21t65 7t65 -7t60 -21t55 -35t49 -49q24 -28 41.5 -58.5t29.5 -64.5t18 -70.5
t6 -75.5q0 -40 -6 -76.5t-18 -70.5t-29.5 -65t-41.5 -59q-23 -28 -49 -48.5t-55 -34.5q-29 -13 -60 -19.5t-65 -6.5v-1v0v0zM317 33q30 -1 57 4.5t52 17.5q26 12 49 30.5t44 43.5q20 25 36 52t26 57q11 30 16 62.5t5 67.5t-5 66.5t-16 61.5q-10 30 -26 57t-36 52
q-21 24 -44 42.5t-49 30.5q-25 12 -52 18.5t-57 6.5t-57 -6.5t-52 -18.5t-48.5 -30.5t-44.5 -42.5q-21 -25 -36.5 -52t-26.5 -57q-10 -30 -15 -61.5t-5 -66.5t5 -67.5t15 -62.5q11 -30 26.5 -57t36.5 -52t44.5 -43.5t48.5 -30.5t52 -18t57 -6v2v0v0zM369 353l110 -197h-53
l-103 197h-82v-197h-44v427h158q2 -1 5 -1.5t6 -0.5h2.5h3.5q0 -1 0.5 -1h1.5h2h2t2.5 -0.5t2.5 -0.5q1 -1 2.5 -1h2.5h2.5h3.5q0 -1 0.5 -1h1.5h2h2q6 -1 11.5 -2.5t10.5 -3.5t10.5 -5t10.5 -6t8.5 -6.5t7.5 -8.5q4 -4 7.5 -9.5t5.5 -10.5q2 -3 3 -6t2 -5q1 -3 1.5 -6
t1.5 -6q0 -3 0.5 -6t1.5 -6t1.5 -6t0.5 -6v-1.5v-1.5v-1.5v-1.5v-1.5v-0.5v-1.5v-0.5q0 -16 -2 -29.5t-6 -24.5t-10.5 -20t-14.5 -15q-8 -7 -17 -12t-20 -8q-10 -4 -21.5 -6t-23.5 -2v2v0v0zM241 394h68l1.5 -1.5t1.5 -0.5h2h2h0.5h0.5h0.5h1.5h3h2h3.5h3.5h3.5h3.5h2h2h1h2
h4.5h3.5h8t8 1q3 0 7 1l8 2q7 2 14 4.5t14 6.5q6 3 11 9t9 13q3 8 5 18t2 22q0 11 -2 20.5t-5 16.5q-4 8 -8.5 13t-10.5 9q-7 3 -13.5 6t-14.5 4q-4 1 -7.5 1.5t-6.5 1.5q-4 1 -7.5 1.5t-7.5 0.5h-1.5h-0.5h-1v0h-1.5h-0.5v0v0h-1v0h-1.5h-1.5h-1.5h-0.5l-104 2v-151v0v0v0z
" />
    <glyph glyph-name="copyright" unicode="&#xa9;" horiz-adv-x="634" 
d="M317 -13q-34 1 -65 7.5t-60 19.5q-29 14 -55 34.5t-50 48.5q-23 28 -41 59t-29 65q-12 34 -16.5 70.5t-4.5 76.5q0 39 4.5 75.5t16.5 70.5q11 34 29 64.5t41 58.5q24 28 50 49t55 35t60 21t65 7t65 -7t60 -21t55 -35t49 -49q24 -28 41.5 -58.5t29.5 -64.5t18 -70.5
t6 -75.5q0 -40 -6 -76.5t-18 -70.5t-29.5 -65t-41.5 -59q-23 -28 -49 -48.5t-55 -34.5q-29 -13 -60 -19.5t-65 -6.5v-1v0v0zM317 33q30 -1 57 4.5t52 17.5q26 12 49 30.5t44 43.5q20 25 36 52t26 57q11 30 16 62.5t5 67.5t-5 66.5t-16 61.5q-10 30 -26 57t-36 52
q-21 24 -44 42.5t-49 30.5q-25 12 -52 18.5t-57 6.5t-57 -6.5t-52 -18.5t-48.5 -30.5t-44.5 -42.5q-21 -25 -36.5 -52t-26.5 -57q-10 -30 -15 -61.5t-5 -66.5t5 -67.5t15 -62.5q11 -30 26.5 -57t36.5 -52t44.5 -43.5t48.5 -30.5t52 -18t57 -6v2v0v0zM436 300h46
q-1 -18 -5 -33.5t-11 -29.5q-6 -13 -14.5 -25t-19.5 -22t-22.5 -17.5t-24.5 -12.5t-26 -7.5t-27 -2.5q-20 0 -38.5 4t-35.5 12q-16 8 -30.5 19.5t-26.5 27.5q-13 16 -22 34t-15 37q-7 20 -9.5 41.5t-2.5 45.5q0 23 2.5 45t9.5 41q5 20 14 37.5t21 33.5q12 15 26 27t30 19
q17 8 35 12t39 4q15 0 28.5 -2.5t26.5 -7.5q13 -4 24.5 -11.5t21.5 -16.5q11 -10 19.5 -21t14.5 -25q7 -13 11.5 -28t6.5 -32l-46 2q-2 11 -5 20.5t-8 18.5t-11 16.5t-13 14.5t-15.5 12t-16.5 8q-9 3 -18 5t-19 2q-16 0 -30.5 -3.5t-26.5 -9.5t-22.5 -15.5t-18.5 -22.5
t-14 -27t-10 -29q-4 -16 -6.5 -32.5t-2.5 -33.5t2.5 -33.5t6.5 -31.5q4 -16 10.5 -30t15.5 -28q8 -13 18.5 -23.5t23.5 -16.5q12 -7 26 -10t30 -3q10 0 19 1.5t17 5.5q8 3 16.5 8t15.5 12q8 7 14 15t10 17q5 9 8 20t4 23v2v0v0z" />
    <glyph glyph-name="trademark" unicode="&#x2122;" horiz-adv-x="850" 
d="M343 739v-60h-113v-361h-63v361h-114v60h290v0v0v0zM797 739v-421h-56v361l-124 -361h-34l-120 361v-361h-57v421h92l102 -297l107 297h90v0v0v0z" />
    <glyph glyph-name="acute" unicode="&#xb4;" horiz-adv-x="318" 
d="M62 669l164 116l29 -58l-164 -114l-29 56v0v0v0z" />
    <glyph glyph-name="dieresis" unicode="&#xa8;" horiz-adv-x="313" 
d="M62 739h63v-126h-63v126v0v0v0zM187 739h63v-126h-63v126v0v0v0z" />
    <glyph glyph-name="notequal" unicode="&#x2260;" 
 />
    <glyph glyph-name="AE" unicode="&#xc6;" horiz-adv-x="843" 
d="M9 0l437 739h349v-67h-269v-266h260v-67h-260v-272h269v-67h-332v249h-231l-148 -249h-75v0v0v0zM272 316h191v328h-2l-189 -328v0v0v0z" />
    <glyph glyph-name="Oslash" unicode="&#xd8;" horiz-adv-x="737" 
d="M617 821l46 -43l-77 -121q14 -15 26 -30t22 -32q10 -16 19.5 -34t16.5 -37q8 -19 13 -39t9 -40t6 -40.5t2 -41.5q0 -40 -6.5 -77t-19.5 -70q-13 -34 -31 -64t-43 -57t-52.5 -47t-56.5 -34q-29 -13 -60 -19t-64 -7q-12 1 -23 2t-22 3q-8 1 -15.5 2.5t-14.5 2.5
q-4 1 -7.5 1.5t-7.5 1.5q-10 3 -20.5 7.5t-21.5 9.5q-10 5 -20 11.5t-20 13.5l-81 -126l-46 41l80 127q-13 12 -24.5 26t-21.5 30t-19 33t-16 35q-8 18 -13.5 36.5t-9.5 37.5q-4 20 -5.5 40t-1.5 41q0 19 1.5 37.5t4.5 36.5q2 18 6.5 36t11.5 35q5 17 12.5 33.5t16.5 31.5
t19 30t21 29q12 14 24.5 26t25.5 22q14 11 28 20t30 17q15 8 30.5 13.5t31.5 9.5q15 4 31 6t32 2h3h2h3.5h2.5q2 -1 3 -1h2h1.5h0.5h2.5h1.5q3 -1 6 -1.5t5 -0.5h6h6q4 -1 8.5 -1.5t8.5 -1.5t8.5 -2t8.5 -2t8.5 -2.5t8.5 -3.5q2 -1 4 -1.5t4 -0.5q2 -1 4.5 -1.5t4.5 -1.5
q8 -4 16.5 -7.5t15.5 -7.5q3 -1 5 -3t5 -3l10 -6t10 -7l79 127v0v0v0zM548 599l-317 -497q8 -7 16 -12l16 -10q8 -4 16.5 -7.5t16.5 -5.5q8 -3 17 -5l18 -4q9 -1 18 -1.5t19 -0.5q26 0 51 5.5t48 16.5t45.5 28.5t42.5 39.5q21 23 36.5 47.5t25.5 51.5t15 56.5t5 61.5
q0 17 -2 33.5t-4 32.5t-6.5 31.5t-10.5 30.5t-13.5 29t-15.5 27q-8 14 -17.5 26t-19.5 24v2v0v0zM185 143l316 496q-7 5 -14 9t-15 8q-7 4 -15.5 7t-16.5 5t-16.5 4t-16.5 3q-8 2 -16.5 2.5t-16.5 0.5h-1.5h-0.5v0v0h-1v0h-1.5h-0.5v0v0h-1v0q-28 0 -54.5 -6t-49.5 -18
q-24 -12 -45 -29.5t-41 -40.5q-19 -24 -34 -49.5t-25 -54.5q-10 -28 -14.5 -58.5t-4.5 -63.5q0 -16 1.5 -31.5t4.5 -30.5t7.5 -29t10.5 -28q5 -13 12.5 -26.5t14.5 -25.5q8 -12 16 -23.5t18 -22.5v2v0v0z" />
    <glyph glyph-name="infinity" unicode="&#x221e;" 
 />
    <glyph glyph-name="plusminus" unicode="&#xb1;" horiz-adv-x="515" 
d="M43 0v76h428v-76h-428v0v0v0zM225 392v162h64v-162h182v-76h-182v-164h-64v164h-182v76h182v0v0v0z" />
    <glyph glyph-name="lessequal" unicode="&#x2264;" 
 />
    <glyph glyph-name="greaterequal" unicode="&#x2265;" 
 />
    <glyph glyph-name="yen" unicode="&#xa5;" horiz-adv-x="470" 
d="M220 0v237h-175v62h150l-43 97h-113v62h85l-124 281h68l184 -415l179 415h69l-123 -281h84v-62h-112l-42 -97h148v-62h-172v-237h-63v0v0v0z" />
    <glyph glyph-name="mu" unicode="&#xb5;" horiz-adv-x="516" 
d="M400 258v289h63v-547h-60v85h-1q-6 -14 -13 -26t-15 -21q-7 -10 -16 -17.5t-19 -12.5t-21 -8l-22 -6t-22.5 -4.5t-24.5 -1.5q-9 0 -18 1t-17 3q-9 1 -17.5 3.5t-16.5 4.5q-8 3 -16.5 7.5t-16.5 10.5t-15.5 13t-15.5 16v-239h-63v739h63v-289v-17t1 -16q0 -8 0.5 -15.5
t1.5 -15.5t2.5 -15.5t3.5 -15.5q2 -7 4.5 -14t6.5 -14q5 -10 10.5 -18t11.5 -16q7 -7 14 -13.5t15 -11.5t16.5 -9t17.5 -6q9 -3 18 -4t19 -1q8 0 16.5 1t15.5 3q8 2 16 5.5t16 7.5q7 5 13.5 10t13.5 11q6 6 12 13.5t11 15.5q5 7 8.5 14.5t5.5 15.5q3 8 5.5 16t3.5 17
q1 8 1.5 16.5t1.5 17.5t1.5 18t0.5 18v2v0v0z" />
    <glyph glyph-name="partialdiff" unicode="&#x2202;" 
 />
    <glyph glyph-name="summation" unicode="&#x3a3;" 
 />
    <glyph glyph-name="product" unicode="&#x220f;" 
 />
    <glyph glyph-name="pi" unicode="&#x3c0;" 
 />
    <glyph glyph-name="integral" unicode="&#x222b;" 
 />
    <glyph glyph-name="ordfeminine" unicode="&#xaa;" horiz-adv-x="313" 
d="M26 369h262v-44h-262v44v0v0v0zM288 745v-292h-38v44h-1q-2 -4 -4 -7l-4 -6q-3 -3 -5 -6t-4 -5q-5 -5 -10.5 -9t-11.5 -7q-6 -4 -12 -6l-12 -4q-7 -1 -13.5 -2t-13.5 -1q-13 0 -26 2.5t-24 7.5q-12 5 -22.5 13.5t-20.5 19.5t-18 23.5t-13 25.5q-5 14 -7 28.5t-2 30.5
q0 17 2 32t7 28q5 14 12 26.5t17 23.5t20.5 19t22.5 14q11 5 24.5 8t26.5 3v0h1v0v0h0.5h1.5v0v0h0.5h1.5h0.5h0.5h0.5h0.5h1.5h1.5q5 -1 11 -2t12 -3q5 -2 11 -4.5t12 -5.5q5 -3 10 -6.5t9 -8.5q5 -4 8.5 -9.5t7.5 -11.5l1 2v45h38v0v0v0zM158 708q-10 -1 -19 -3.5
t-17 -6.5t-15.5 -10.5t-15.5 -14.5q-7 -8 -12 -17t-9 -18q-4 -10 -5.5 -20.5t-1.5 -21.5q0 -12 1.5 -22.5t5.5 -20.5t9.5 -18t12.5 -16q8 -8 15.5 -14t16.5 -10q8 -4 17 -5.5t18 -1.5t17.5 2t16.5 6t15.5 10t14.5 14t11.5 16.5t8.5 17.5t5.5 19.5t1.5 21.5t-1.5 21.5
t-5.5 20.5t-8.5 19t-10.5 17q-4 6 -9.5 10.5t-10.5 7.5q-2 2 -4.5 4t-5.5 3q-8 4 -17 6t-19 2v2v0v0z" />
    <glyph glyph-name="ordmasculine" unicode="&#xba;" horiz-adv-x="313" 
d="M27 369h259v-44h-259v44v0v0v0zM157 751q14 -1 26 -4.5t23 -9.5t21.5 -14.5t20.5 -19.5q9 -12 16.5 -24t12.5 -26q5 -13 7 -28t2 -30q0 -16 -2.5 -30t-7.5 -27t-12 -25.5t-17 -23.5t-20 -19.5t-22 -14.5q-11 -6 -23 -8.5t-25 -2.5t-25.5 2.5t-24.5 8.5q-11 5 -21.5 13.5
t-20.5 19.5t-17 23.5t-12 25.5q-5 14 -7 28t-2 30t2 31t7 28q5 14 11.5 26.5t16.5 23.5t20.5 19.5t22.5 14.5q11 5 23.5 8t26.5 3v2v0v0zM157 490q10 -1 18.5 0.5t16.5 5.5t15.5 10t13.5 14q7 8 11.5 16.5t7.5 18.5t5 20.5t2 21.5t-2 21.5t-5 19.5t-7.5 18t-11.5 17
q-6 8 -13.5 14t-15.5 10t-16.5 6t-18.5 2t-19.5 -2t-17.5 -6t-15 -10t-14 -14q-6 -8 -11 -17t-8 -18t-4.5 -19.5t-1.5 -21.5t1.5 -21.5t4.5 -20.5t8 -18.5t11 -16.5q7 -8 14 -14t15 -10t17.5 -6t19.5 -2v2v0v0z" />
    <glyph glyph-name="Omega" unicode="&#x3a9;" 
 />
    <glyph glyph-name="ae" unicode="&#xe6;" horiz-adv-x="983" 
d="M950 246h-419q1 -20 5 -38.5t11 -35.5q8 -16 18.5 -31.5t23.5 -29.5t27 -24.5t29 -17.5q14 -7 30 -10t32 -3h0.5h0.5h0.5h1.5h3h2h0.5h1.5h0.5t1.5 1h0.5h1.5h1.5h1.5q6 0 11.5 1t10.5 3q5 1 10.5 3t11.5 4q4 2 7.5 3.5t6.5 3.5q7 4 14.5 9t13.5 10q11 8 19.5 17t15.5 19
q8 11 14 22t10 24l66 2q-6 -22 -14.5 -42t-19.5 -37t-24.5 -32t-29.5 -28t-33 -23.5t-34 -15.5q-18 -5 -36 -8.5t-36 -3.5q-13 0 -26 2t-25 5q-13 3 -25.5 7t-23.5 10q-12 7 -22.5 15t-21.5 17q-10 9 -19.5 19t-17.5 22v-98h-59v100q-9 -13 -18.5 -24.5t-19.5 -20.5
q-10 -10 -21 -17.5t-22 -13.5t-23 -9.5t-25 -6.5t-25.5 -5t-26.5 -2q-13 0 -25 1.5t-24 3.5q-11 2 -22.5 4.5t-22.5 6.5q-11 5 -21.5 10.5t-20.5 12.5q-10 8 -20 16.5t-18 18.5q-9 10 -17 20.5t-16 22.5q-7 12 -13 25t-11 27t-9 27.5t-7 27.5q-2 14 -3.5 28.5t-1.5 29.5
q0 14 1 28.5t3 28.5q3 14 7 28.5t9 27.5q5 14 11 26t13 24t15 23t17 21q9 11 19 20t20 16q4 3 7 5t7 5l14 8t14 7q11 5 22.5 8t23.5 6q13 2 25.5 3.5t25.5 1.5t25.5 -2t25.5 -5t25.5 -8t24.5 -12t22.5 -15t20.5 -18t19 -21t16 -23v106h59v-104q5 8 11 16.5t13 15.5
q8 8 16 14.5t16 13.5q9 6 18 11.5t19 9.5q5 2 9.5 4t9.5 4q4 1 9 3t9 3h1.5h0.5h1v1h2h1h2t2 1l1 0.5t2 0.5h1.5t1.5 1h1.5h0.5h2t2 1h1h2h3.5h2.5h1.5t1.5 1h2h2h1.5t1.5 1h0.5h1.5h3.5h3.5q7 0 13.5 -0.5t13.5 -1.5q6 -1 12.5 -2.5t13.5 -3.5q6 -2 12.5 -4t13.5 -5
t13.5 -6t12.5 -6q13 -7 24.5 -16t22.5 -19q10 -10 19.5 -21t18.5 -23q8 -11 14.5 -22.5t11.5 -23.5t9 -24.5t7 -25.5q1 -3 1.5 -6.5t0.5 -6.5q2 -10 3.5 -20t2.5 -20q2 -13 2.5 -27.5t0.5 -28.5v2v0v0zM282 58q19 -1 37.5 2.5t34.5 10.5q17 8 31.5 19t27.5 27q14 15 24 32.5
t17 36.5q7 20 10.5 41t3.5 44t-3.5 44.5t-10.5 40.5q-7 20 -17 37t-24 32q-13 15 -27.5 26.5t-31.5 18.5q-16 8 -34.5 12t-38.5 4q-19 0 -37 -4t-35 -12q-16 -8 -31 -20t-28 -28t-23 -33.5t-16 -37.5q-7 -19 -10 -40.5t-3 -44.5q0 -22 3.5 -42.5t10.5 -39.5
q6 -19 16.5 -35.5t24.5 -31.5q13 -16 28 -27t31 -19q17 -7 34 -11t36 -4v2v0v0zM532 313h352q-2 17 -6.5 33.5t-12.5 32.5q-7 15 -17.5 29t-23.5 27l-14 12t-13 10q-7 5 -14 9t-14 7q-14 6 -28.5 9.5t-30.5 3.5h-6.5t-6.5 -1q-7 0 -13.5 -1t-12.5 -2q-9 -2 -17.5 -5
t-16.5 -7t-15.5 -9t-15.5 -11q-7 -7 -14 -14.5t-14 -15.5q-5 -6 -9 -12l-8 -12t-8 -12.5t-6 -13.5q-3 -7 -5.5 -13.5t-3.5 -14.5l-2 -8t-2 -7q0 -4 -1 -8t-1 -8v2v0v0z" />
    <glyph glyph-name="oslash" unicode="&#xf8;" horiz-adv-x="555" 
d="M156 27l-47 -72l-44 40l47 71q-7 5 -12.5 12t-10.5 14l-10 16t-10 18q-4 9 -8 18.5t-7 19.5q-4 10 -6.5 20t-4.5 20l-2 8l-2 8q0 5 -0.5 9.5t-1.5 8.5t-1.5 8t-0.5 8v4v5v4v4q0 29 4.5 56t13.5 52t22.5 48t31.5 45q17 21 36.5 37t41.5 26q21 11 44 16.5t48 5.5
q3 0 6.5 -0.5t7.5 -0.5q2 0 3.5 -0.5t3.5 -0.5q5 -1 10 -1.5t9 -1.5q2 -1 4.5 -1.5t4.5 -0.5q2 -1 4.5 -1.5t5.5 -1.5t5.5 -2t4.5 -1q2 -1 4.5 -2t5.5 -2q1 -1 2 -1.5t2 -0.5l1 -1h1q1 -1 1.5 -1t1.5 -1t2.5 -1.5t2.5 -0.5q1 -1 2.5 -1.5t2.5 -1.5l3 -1.5t2 -1.5l3 -1.5
t2 -0.5q2 -1 3.5 -2t2.5 -1q1 -1 2.5 -1.5t2.5 -1.5l6 -1l49 76l46 -41l-50 -76l8 -12t8 -11q4 -6 7.5 -12t6.5 -12q7 -12 12.5 -24t10.5 -25t8 -26t6 -27q2 -14 3.5 -28.5t1.5 -28.5q0 -30 -5 -57t-14 -53q-9 -25 -22.5 -48t-30.5 -44q-19 -21 -38.5 -36.5t-40.5 -25.5
q-22 -9 -45 -14t-48 -5h-2h-1h-2h-1q-1 1 -2 1h-1h-2h-2h-1.5h-0.5h-0.5h-0.5h-2h-1q-1 1 -1.5 1h-1.5h-1.5h-1.5q-3 0 -6 0.5t-6 1.5q-4 1 -7 1.5t-6 1.5l-8 2l-8 2q-2 0 -4 0.5t-4 0.5q-4 2 -8 3.5t-8 3.5l-4 2l-4 2q-5 3 -10.5 6.5t-10.5 7.5v2v0v0zM411 418l-219 -335
q4 -4 7.5 -6.5t7.5 -4.5t8.5 -3.5t8.5 -3.5q4 -1 8.5 -2.5t8.5 -2.5t8.5 -1.5t8.5 -0.5q1 0 1.5 -0.5t1.5 -0.5q0 -1 0.5 -1h1.5h1.5h1.5h0.5h1.5h3h2h3.5h3.5h0.5h1.5v0h1v0v0h0.5h1.5h0.5h1.5q8 0 16.5 1.5t17.5 4.5q8 2 16.5 6t16.5 9t16 10.5t15 11.5t13 13l12 14
q6 8 11 15.5t9 16.5q5 9 8.5 18t6.5 19q2 9 4.5 18.5t3.5 19.5q0 3 0.5 6.5t0.5 6.5q1 7 1.5 13.5t0.5 13.5t-0.5 13.5t-1.5 13.5q0 3 -0.5 6.5t-0.5 6.5q-1 5 -2 9.5t-2 9.5q-1 4 -2 9t-2 9q-2 6 -4.5 12.5t-5.5 12.5l-2 4l-2 4q-4 8 -9 16.5t-11 16.5v2v0v0zM147 124
l219 335q-3 1 -5.5 2t-4.5 3q-2 1 -4.5 2.5t-5.5 2.5q-3 2 -6.5 3.5t-7.5 2.5q-2 1 -3.5 1.5t-3.5 1.5q-6 2 -11.5 3.5t-10.5 2.5q-6 1 -11.5 1.5t-10.5 0.5q-19 0 -36 -4t-33 -12q-16 -7 -31 -18.5t-28 -26.5q-14 -15 -24.5 -32t-16.5 -36q-7 -19 -10.5 -39t-3.5 -42v-4v-4
v-4v-4v-4v-4t0.5 -4t1.5 -4q1 -9 2 -17.5t3 -16.5t4.5 -16t5.5 -16t6.5 -15.5t7.5 -14.5q3 -5 6 -9.5t6 -8.5q1 -2 3 -4t3 -4v2v0v0z" />
    <glyph glyph-name="questiondown" unicode="&#xbf;" horiz-adv-x="502" 
d="M386 34h61v-22v-2.5v-2.5v-1.5v-1.5q-1 -1 -1 -1.5v-1.5v-1v0v-0.5v-1.5v-1v-2q-1 0 -1 -0.5v-1.5v-1.5v-1.5q0 -2 -0.5 -4.5t-0.5 -4.5q-1 -2 -1 -4.5t-1 -5.5q0 -4 -1 -9t-3 -9q-2 -9 -5 -18t-7 -18q-4 -8 -8 -16.5t-9 -16.5q-3 -4 -5.5 -7.5t-4.5 -7.5t-4.5 -7.5
t-5.5 -6.5q-7 -8 -15.5 -15.5t-16.5 -13.5q-4 -3 -8.5 -6t-8.5 -6t-8.5 -5.5t-8.5 -4.5q-10 -4 -19.5 -7t-19.5 -5t-19.5 -3.5t-19.5 -1.5q-20 0 -39 4.5t-36 12.5t-32 20t-29 29q-13 16 -23 35t-17 39t-10 42t-3 44q0 14 1 27.5t5 25.5q2 12 7 23t11 21q2 3 4.5 6.5
t4.5 6.5q4 6 8.5 12.5t9.5 12.5q3 5 6.5 9.5t6.5 9.5q4 4 8 9t8 9q7 8 14 17l14 18q6 9 12.5 18t13.5 19q6 10 10.5 21t7.5 23t5 25t2 28l63 2v-2v-1v-1.5v-0.5v-1.5v-0.5v0v0v-1v0q0 -16 -1.5 -31t-4.5 -29q-4 -14 -9 -27t-11 -25q-7 -13 -14 -25t-15 -23q-7 -11 -16 -21.5
t-18 -20.5l-1.5 -1.5t-0.5 -1.5l-1.5 -1.5l-1.5 -1.5l-1.5 -1.5t-0.5 -1.5l-1.5 -1.5l-1.5 -1.5l-2.5 -2.5t-2.5 -3.5q-1 -1 -2.5 -2t-2.5 -2l-6 -6t-5 -6q-3 -4 -5.5 -7t-4.5 -6q-4 -6 -8 -12.5t-7 -13.5q-4 -7 -6.5 -14.5t-4.5 -16.5t-2.5 -18t-0.5 -20q0 -14 2 -28t7 -27
t12.5 -25t17.5 -23q11 -11 22 -18.5t22 -13.5q11 -5 23.5 -8t25.5 -3q14 0 27 3.5t25 9.5q3 1 6 3t5 4q9 6 17.5 13.5t15.5 16.5q10 13 17 26.5t12 27.5t7.5 28.5t2.5 29.5v1.5v1.5v1.5v1.5v1.5v1.5v1.5v1.5v2v0v0zM278 547v-126h-63v126h63v0v0v0z" />
    <glyph glyph-name="exclamdown" unicode="&#xa1;" horiz-adv-x="250" 
d="M94 -192v548h63v-548h-63v0v0v0zM94 421v126h63v-126h-63v0v0v0z" />
    <glyph glyph-name="logicalnot" unicode="&#xac;" 
 />
    <glyph glyph-name="radical" unicode="&#x221a;" 
 />
    <glyph glyph-name="florin" unicode="&#x192;" horiz-adv-x="470" 
d="M334 521h95l-10 -67h-96l-66 -419q-1 -3 -1.5 -5t-0.5 -4v-2.5v-3.5q-1 -1 -1.5 -2.5t-0.5 -3.5v-2.5v-3.5v-1.5v-0.5q-1 -1 -1 -1.5v-0.5v-1.5v-1.5l-0.5 -0.5l-0.5 -0.5h-1v0v-2v-2q-1 -2 -1 -3.5v-3.5v-4v-4q0 -3 -1 -5t-1 -5q-1 -1 -1 -2v-3q-1 -3 -2 -6.5t-1 -7.5
q-1 -4 -2 -7.5t-1 -7.5q-1 -3 -2 -6.5t-2 -7.5q-2 -7 -4.5 -13.5t-5.5 -13.5t-6 -13.5t-7 -13.5q-7 -11 -14.5 -20t-15.5 -16q-8 -8 -17 -14.5t-19 -11.5t-20.5 -9t-21.5 -6t-21.5 -3.5t-21.5 -1.5h-1.5h-1.5h-1.5h-0.5h-1.5h-0.5h-1.5h-1.5h-2h-3h-2h-2t-2 0.5t-2 0.5
q-1 1 -2 1h-2h-2h-1h-2h-2l-1 0.5l-1 0.5q-1 0 -2 0.5t-2 0.5q-2 0 -3.5 0.5t-3.5 1.5l11 64l22 -4l24 -2q17 1 31.5 4.5t26.5 10.5q11 7 19.5 17.5t14.5 24.5q2 5 3.5 9.5t2.5 9.5q3 10 6.5 19.5t5.5 19.5q4 15 7.5 29.5t6.5 30.5v0v0v0l1 1v0v0v0v1v0v0v0v0v0.5v1.5v0.5
v1.5v0.5v1.5v1.5v1.5v0.5t1 1.5v0.5v0.5l67 414h-97l11 67h95l1 9q1 2 1.5 5t0.5 6q1 3 1.5 6t1.5 7q1 3 1.5 6.5t1.5 7.5q0 3 0.5 6.5t1.5 7.5q2 7 3.5 13.5t2.5 12.5q1 2 1.5 4t1.5 4q1 5 2.5 9.5t3.5 8.5l2 6l2 6q2 2 3.5 5t2.5 6q2 6 5.5 11.5t7.5 10.5q5 8 10.5 14.5
t11.5 12.5q7 6 14.5 12t14.5 11l8 4l8 4l8 4t8 3q8 2 16.5 3.5t17.5 1.5v0v0h0.5h1.5v0v0v0h1v0v0v0h1v0v0h0.5h1.5l18 2l-11 -71l-6 2l-9 1q-3 -1 -5.5 -1.5t-4.5 -0.5q-2 -1 -4.5 -1.5t-4.5 -1.5q-5 -1 -9 -3.5t-8 -4.5q-2 -1 -4 -3t-4 -3q-3 -2 -5 -3.5t-4 -3.5
q-4 -4 -7 -7.5t-6 -7.5l-4 -6l-4 -6l-3.5 -7t-3.5 -6q-4 -7 -6 -13.5t-4 -13.5q-1 -4 -2 -7.5t-1 -6.5q-1 -4 -2 -7.5t-2 -7.5q0 -4 -0.5 -7.5t-1.5 -6.5q-1 -4 -1.5 -7.5t-0.5 -6.5l-2 -12v0v0v0z" />
    <glyph glyph-name="approxequal" unicode="&#x2248;" 
 />
    <glyph glyph-name="Delta" unicode="&#x2206;" 
 />
    <glyph glyph-name="guillemotleft" unicode="&#xab;" horiz-adv-x="361" 
d="M130 101l-96 200l96 199l49 -31l-80 -168l80 -168l-49 -32v0v0v0zM277 101l-96 200l96 199l50 -31l-80 -168l80 -168l-50 -32v0v0v0z" />
    <glyph glyph-name="guillemotright" unicode="&#xbb;" horiz-adv-x="361" 
d="M83 101l-49 32l79 168l-79 168l49 31l96 -199l-96 -200v0v0v0zM231 101l-50 32l79 168l-79 168l50 31l96 -199l-96 -200v0v0v0z" />
    <glyph glyph-name="ellipsis" unicode="&#x2026;" horiz-adv-x="850" 
d="M110 0v126h63v-126h-63v0v0v0zM393 0v126h63v-126h-63v0v0v0zM676 0v126h63v-126h-63v0v0v0z" />
    <glyph glyph-name="Agrave" unicode="&#xc0;" horiz-adv-x="629" 
d="M9 0l271 739h70l269 -739h-68l-91 248h-292l-91 -248h-68v0v0v0zM192 315h244l-121 339l-123 -339v0v0v0zM243 971l169 -108l-28 -58l-168 106l27 60v0v0v0z" />
    <glyph glyph-name="Atilde" unicode="&#xc3;" horiz-adv-x="629" 
d="M9 0l271 739h70l269 -739h-68l-91 248h-292l-91 -248h-68v0v0v0zM192 315h244l-121 339l-123 -339v0v0v0zM413 892l25 -48q-1 -3 -3.5 -5.5l-4.5 -4.5l-2 -2l-2 -2q-3 -3 -6 -5.5t-7 -4.5q-4 -3 -7.5 -5t-7.5 -4l-7 -3.5t-6 -2.5q-1 -1 -2.5 -1.5t-3.5 -0.5h-1.5h-1.5
h-1.5h-0.5h-0.5h-1.5h-2h-2h-2.5h-2.5q-2 0 -3 0.5t-3 0.5t-4.5 0.5t-5.5 1.5q-1 0 -2.5 0.5t-2.5 1.5q-1 0 -2.5 0.5t-2.5 1.5q-1 0 -2.5 0.5t-2.5 1.5t-2.5 1.5t-2.5 1.5h-1.5h-1.5t-1 0.5v1.5h-1.5t-0.5 1h-1v0q-1 0 -1.5 0.5l-1.5 1.5t-2 1.5l-3 1.5q-1 1 -2 1.5l-3 1.5
q-1 0 -1.5 0.5l-1.5 1.5q-1 0 -2 0.5t-2 1.5l-1.5 1.5t-1.5 0.5t-2 0.5t-1 1.5h-1.5t-0.5 1h-1.5h-0.5q-1 0 -1.5 0.5l-1.5 1.5h-1.5t-1.5 1h-0.5h-0.5q-1 0 -2 0.5t-2 1.5q-1 0 -2 0.5l-1 0.5q-1 1 -2 1h-2h-2t-2 1h-2h-2h-1.5h-0.5h-1.5h-0.5v0v0h-1v0v0v0q-1 0 -3 -0.5
t-3 -1.5q-2 0 -3.5 -0.5t-3.5 -1.5q-3 -1 -6 -3t-5 -4q-3 -2 -5.5 -4.5l-4.5 -4.5q-2 -1 -3.5 -2.5t-2.5 -3.5l-1.5 -1.5l-1.5 -1.5l-24 51q4 4 8 7.5t8 7.5t8.5 7.5t8.5 6.5q2 1 4.5 2t5.5 2q2 1 4.5 2t4.5 2q3 1 5.5 1.5t5.5 0.5q3 1 5.5 1h5.5h4t5 -1q2 0 4 -0.5t4 -0.5
q4 -1 7 -1.5t6 -2.5q2 -1 3.5 -2t3.5 -1q1 -1 3 -2t3 -2t2.5 -2t3.5 -1q0 -1 0.5 -1t1.5 -1q1 0 2 -0.5t2 -1.5l1.5 -1.5l1.5 -1.5l3 -1.5t2 -1.5q0 -1 0.5 -1.5t1.5 -0.5h1h2v-1.5t1 -0.5h0.5h1.5q0 -1 0.5 -1h0.5l1.5 -1.5t1.5 -0.5l0.5 -0.5t1.5 -0.5q1 -1 1.5 -1h0.5
q1 -1 2 -1.5t2 -0.5h0.5h1.5q0 -1 0.5 -1h0.5q1 0 2 -0.5t2 -0.5q1 -1 2 -1h2h4h4h0.5h1.5h2h2h0.5h1.5t1.5 0.5l1.5 1.5q1 0 2.5 0.5t2.5 1.5t3 1.5t4 1.5q1 1 2.5 2t2.5 2t2.5 2t2.5 2t2.5 2t2.5 2l3.5 3.5t3.5 2.5v2v0v0z" />
    <glyph glyph-name="Otilde" unicode="&#xd5;" horiz-adv-x="738" 
d="M368 751q34 -1 65 -8.5t60 -21.5q29 -13 56 -34t52 -48q25 -28 43.5 -58.5t31.5 -63.5q12 -34 18.5 -70.5t6.5 -76.5t-6.5 -77.5t-18.5 -71.5q-13 -34 -31 -65t-42 -59q-25 -28 -52 -48.5t-56 -34.5q-29 -13 -61 -19.5t-66 -6.5q-33 0 -64 6t-60 19q-29 14 -55.5 34
t-52.5 48q-25 27 -43 57.5t-31 64.5t-19 70.5t-6 76.5t6 77t18 71q12 35 30.5 66t43.5 59q24 28 51 49t56 35t60.5 21t65.5 7v2v0v0zM369 58q28 -1 53.5 4t49.5 16t45.5 28.5t41.5 40.5t34.5 48t24.5 53t15 58.5t5 63.5q0 32 -5 61.5t-16 56.5q-10 27 -25 52.5t-35 47.5
q-20 23 -42 39.5t-45 27.5q-24 11 -49 17t-52 6q-28 0 -54 -6t-49 -17q-25 -12 -46.5 -29t-41.5 -40q-19 -23 -34 -48.5t-25 -53.5t-14.5 -58t-4.5 -62t4.5 -62t14.5 -57q11 -27 26 -51.5t36 -47.5q20 -22 42 -39.5t45 -28.5q24 -11 49.5 -16.5t51.5 -5.5v2v0v0zM467 892
l26 -48q-3 -4 -6 -7.5t-6 -6.5q-4 -3 -7 -5.5t-6 -4.5q-4 -3 -7.5 -5t-7.5 -4t-7.5 -3.5t-6.5 -2.5q-1 0 -1.5 -0.5l-0.5 -0.5q-1 -1 -1.5 -1h-1.5h-2h-2h-1.5h-2.5h-1.5h-1.5h-6t-5 1q-3 0 -5.5 0.5t-4.5 1.5q-1 0 -2.5 0.5t-2.5 1.5q-2 0 -3 0.5l-3 1.5t-4.5 2.5t-5.5 2.5
h-1.5h-0.5q-1 0 -1.5 0.5t-0.5 1.5h-1.5t-0.5 1h-1v0l-0.5 0.5l-1.5 1.5t-2.5 1.5t-2.5 1.5t-2.5 1.5t-2.5 1.5q-1 0 -2 0.5t-2 1.5q-1 0 -1.5 0.5l-1.5 1.5t-2 1.5t-2 0.5t-1.5 0.5l-1.5 1.5h-1.5t-0.5 1h-1v0q-1 0 -2 0.5t-2 1.5h-0.5t-1.5 1h-1.5h-0.5q-1 0 -2 0.5
t-1 1.5q-2 1 -4 1.5t-4 0.5h-2t-2 1h-2h-2h-1v0h-1.5h-0.5h-1.5h-0.5v0v0q-3 -1 -6 -1.5t-7 -2.5q-1 -1 -2.5 -1.5t-2.5 -1.5q-2 -1 -3 -2t-3 -2q-3 -2 -5.5 -4.5l-4.5 -4.5t-4 -4.5t-4 -4.5l-25 51q4 4 8 7.5t8 7.5t8.5 7.5t8.5 6.5q5 2 10 4.5t10 3.5q5 2 10.5 2.5
t11.5 0.5h4t4 -1q2 0 4 -0.5t4 -0.5t3.5 -0.5t3.5 -1.5q2 0 3.5 -0.5t3.5 -1.5t3.5 -2t2.5 -1q2 -1 3.5 -2t2.5 -2q2 -1 3.5 -2t2.5 -1q2 -1 3.5 -2t2.5 -2t2 -1.5t2 -1.5t2.5 -1.5t2.5 -1.5v-0.5t1 -0.5v-1v0h1h2q0 -1 0.5 -1.5t1.5 -0.5h0.5h0.5q0 -1 0.5 -1h0.5
q1 -1 2 -1.5t2 -0.5q0 -1 1.5 -1.5t2.5 -0.5l1.5 -1.5t1.5 -0.5h0.5h1.5q0 -1 0.5 -1h1.5t2 -0.5t2 -0.5q0 -1 1 -1h2h2h2h2h2h1.5h1.5h1h2h0.5h1.5t1.5 0.5l1.5 1.5h1.5t1.5 1l0.5 0.5t1.5 0.5q2 1 3.5 1.5t3.5 1.5q1 0 1.5 0.5l1.5 1.5l0.5 0.5l1.5 1.5q1 0 1.5 0.5
l1.5 1.5l0.5 0.5l1.5 1.5q2 1 3 2l2 2l3.5 3.5t3.5 2.5v2v0v0z" />
    <glyph glyph-name="OE" unicode="&#x152;" horiz-adv-x="1014" 
d="M635 739h332v-67h-269v-267h259v-67h-259v-271h269v-67h-332v143h-1q-11 -19 -23.5 -35.5t-26.5 -30.5q-13 -14 -29 -26t-33 -22t-34.5 -18t-34.5 -12q-18 -5 -36 -7.5t-37 -3.5h-1v0h-1.5h-0.5h-1.5h-0.5v0v0h-1v0q-34 0 -67 6t-62 19q-30 13 -57 32.5t-52 46.5
q-25 26 -43.5 57t-30.5 65q-13 35 -19 73t-6 80q0 41 6 78.5t18 71.5q11 34 29.5 64.5t42.5 58.5q23 27 50 47.5t56 33.5q29 14 61.5 21t66.5 7h2.5h2.5h1.5h1.5h0.5h1.5h1.5h0.5h2h2q0 -1 0.5 -1h1.5h1.5h1.5q18 -1 35.5 -5t34.5 -9t34.5 -12.5t33.5 -17.5q17 -10 31.5 -21
t27.5 -25q14 -13 26 -28.5t23 -32.5l1 2v140v0v0v0zM369 680q-28 -1 -54.5 -7.5t-49.5 -17.5q-25 -11 -46 -27.5t-41 -38.5q-19 -22 -34 -47.5t-25 -53.5t-14.5 -58.5t-4.5 -64.5q0 -32 4.5 -62t14.5 -57q10 -28 25 -52.5t34 -47.5q20 -22 41 -39.5t45 -28.5
q23 -11 48 -16.5t53 -5.5t53.5 5.5t50.5 16.5q24 11 46 28.5t41 39.5q20 23 35 48t25 53t14.5 58.5t4.5 64.5q0 32 -4.5 62t-14.5 57t-25 52t-35 47q-19 23 -41 39.5t-45 27.5t-48.5 17t-52.5 7v1v0v0v0z" />
    <glyph glyph-name="oe" unicode="&#x153;" horiz-adv-x="966" 
d="M933 245h-414q1 -21 4.5 -39.5t10.5 -35.5q8 -17 18 -32t24 -29q14 -13 27.5 -23.5t29.5 -17.5q14 -7 30.5 -10t32.5 -2v0h1v0v0h0.5h1.5v0h1v0v0h0.5h1.5v0v0v0h1q12 0 24 2.5t23 6.5q11 5 22.5 11t21.5 14q11 8 20.5 17.5t17.5 19.5q8 11 14 23t10 25l64 2
q-5 -22 -13 -41.5t-18 -36.5q-11 -17 -24.5 -32t-29.5 -28t-32.5 -23t-33.5 -16q-17 -4 -34.5 -7.5t-35.5 -4.5h-1.5h-0.5v0v0v0v0h-1v0v0v0h-1.5h-1.5h-1.5h-0.5q-1 1 -2 1h-2h-1.5h-0.5h-1.5h-1.5h-1.5h-0.5h-2h-2h-1.5h-0.5q-15 2 -29 5.5t-28 7.5q-14 5 -27.5 12.5
t-26.5 17.5t-24.5 21t-20.5 24q-10 13 -17.5 27t-13.5 30q-7 -16 -16.5 -31t-20.5 -29q-11 -13 -24 -25t-27 -22q-7 -5 -14.5 -10t-14.5 -8q-8 -4 -15 -6.5t-15 -4.5q-5 -2 -10.5 -3t-10.5 -2q-10 -2 -20.5 -3.5t-21.5 -1.5q-25 0 -48.5 5t-45.5 14q-22 11 -41 26.5
t-36 37.5q-18 21 -31.5 44.5t-22.5 48.5q-9 26 -13 53t-4 57q0 29 4.5 56t13.5 52t22.5 48t31.5 44q17 20 36.5 36t41.5 26q21 11 44 16t48 5q8 0 15.5 -0.5t15.5 -2.5q8 -1 15.5 -3t15.5 -5q15 -5 30 -12.5t29 -18.5q14 -10 27 -22t24 -26q11 -13 21 -27.5t18 -30.5
q6 16 14 30.5t18 27.5t21.5 24.5t24.5 21.5q14 10 28 17.5t28 13.5q14 5 28.5 8.5t29.5 4.5h1.5h1.5h1.5h1.5h0.5h1.5h0.5h1.5v0h1v0h1q26 0 50 -5.5t45 -16.5q22 -10 41.5 -26t36.5 -37q17 -22 29.5 -45.5t21.5 -49.5q8 -25 12.5 -53.5t4.5 -58.5v-20v0v0v0zM279 58
q19 -1 36 2.5t33 11.5q15 8 29.5 19.5t27.5 27.5t22.5 33t15.5 36q7 18 10 38t3 42q0 21 -3 41.5t-10 39.5q-6 19 -15.5 37t-22.5 34q-13 17 -27.5 29t-29.5 20q-16 8 -33 12.5t-36 4.5t-36 -4t-34 -12q-16 -7 -30 -19t-28 -27q-13 -16 -23.5 -33t-16.5 -35
q-7 -19 -10.5 -39t-2.5 -42q-1 -22 2.5 -43t9.5 -41q7 -19 16.5 -36.5t22.5 -33.5t28 -28.5t31 -20.5t34 -12t37 -4v2v0v0zM519 312h351q-2 17 -6.5 33.5t-12.5 32.5q-7 15 -17.5 29t-23.5 27t-27 22.5t-28 16.5q-14 6 -28.5 9.5t-29.5 3.5q-17 0 -33 -3.5t-30 -9.5
t-27.5 -15.5t-25.5 -21.5q-13 -13 -23 -27t-18 -30q-7 -16 -13 -33t-8 -36v2v0v0z" />
    <glyph glyph-name="endash" horiz-adv-x="425" 
d="M0 334h425v-67h-425v67v0v0v0z" />
    <glyph glyph-name="emdash" unicode="&#x2014;" horiz-adv-x="850" 
d="M0 334h850v-67h-850v67v0v0v0z" />
    <glyph glyph-name="quotedblleft" unicode="&#x201c;" horiz-adv-x="426" 
d="M219 546h-63l-75 193h63l75 -193v0v0v0zM345 546h-63l-75 193h63l75 -193v0v0v0z" />
    <glyph glyph-name="quotedblright" unicode="&#x201d;" horiz-adv-x="411" 
d="M73 546l72 193h63l-75 -193h-60v0v0v0zM196 546l75 193h63l-75 -193h-63v0v0v0z" />
    <glyph glyph-name="quoteleft" unicode="&#x2018;" horiz-adv-x="298" 
d="M221 546h-63l-75 193h63l75 -193v0v0v0z" />
    <glyph glyph-name="quoteright" unicode="&#x2019;" horiz-adv-x="298" 
d="M77 546l75 193h63l-75 -193h-63v0v0v0z" />
    <glyph glyph-name="divide" unicode="&#xf7;" 
 />
    <glyph glyph-name="lozenge" unicode="&#x25ca;" 
 />
    <glyph glyph-name="ydieresis" unicode="&#xff;" horiz-adv-x="455" 
d="M380 547h67l-268 -739h-66l73 209l-179 530h67l149 -436l157 436v0v0v0zM134 739h63v-126h-63v126v0v0v0zM259 739h63v-126h-63v126v0v0v0z" />
    <glyph glyph-name="Ydieresis" unicode="&#x178;" horiz-adv-x="503" 
d="M220 0v247l-219 492h69l181 -415l181 415h69l-218 -492v-247h-63v0v0v0zM158 931h63v-126h-63v126v0v0v0zM283 931h62v-126h-62v126v0v0v0z" />
    <glyph glyph-name="fraction" unicode="&#x2215;" horiz-adv-x="141" 
d="M-97 0l281 739h54l-281 -739h-54v0v0v0z" />
    <glyph glyph-name="currency" unicode="&#xa4;" horiz-adv-x="470" 
d="M26 110l36 42q-1 1 -1.5 2.5t-2.5 2.5q-1 1 -1.5 2t-0.5 2t-0.5 1.5l-0.5 0.5l-1.5 1.5t-0.5 1.5q-1 1 -1.5 2t-0.5 2v0v1q-1 0 -1 0.5v1.5v0.5v1.5q-1 0 -1 0.5v0.5q-4 7 -7 14t-5 14q-1 3 -1.5 5.5t-1.5 4.5q-2 5 -3.5 10t-2.5 10q-1 7 -2.5 14.5t-2.5 15.5t-1 16.5
v17.5v16.5v16.5q0 4 1 8t1 8q1 3 2 7l2 8q1 7 3 14l4 14q2 4 3 7.5t3 7.5q1 3 2.5 6.5t2.5 7.5q1 2 2 3.5t2 2.5l2 4l2 4t1.5 4t1.5 4q2 2 3 4l2 4l-36 45l44 53l37 -43q8 5 15.5 10.5t14.5 9.5q8 5 16 8.5t17 6.5q8 3 16.5 5.5t17.5 3.5q8 2 16.5 2.5t17.5 0.5q8 0 16.5 -1
t17.5 -3l8 -2l8 -2q3 -1 7 -2t8 -3q8 -4 15.5 -7.5t14.5 -8.5q4 -2 7.5 -4.5t7.5 -5.5q3 -2 6.5 -4.5t7.5 -5.5l38 45l44 -53l-36 -43q0 -3 1 -4.5t2 -3.5q1 -1 1.5 -2.5t1.5 -3.5q0 -1 0.5 -1.5l1.5 -1.5q0 -1 0.5 -1.5l1.5 -1.5v-1.5t1 -1.5v-1.5t1 -1.5q4 -8 7.5 -16
t5.5 -16l2 -8t3 -7l2 -8l2 -8q1 -8 2.5 -16.5t2.5 -16.5v-8.5t1 -9.5v-8.5v-9.5v-8v-8q-1 -3 -1 -7v-7q-1 -4 -1.5 -7.5t-0.5 -6.5q-1 -4 -1.5 -7.5t-1.5 -6.5t-2 -6.5t-1 -6.5q-1 -4 -2 -7l-2 -6t-2.5 -6.5t-2.5 -6.5l-2 -6t-3 -6q-1 -2 -2 -4.5t-3 -4.5q-1 -2 -1.5 -4
t-1.5 -4q-1 -1 -1.5 -2t-1.5 -2t-1 -2v-2q-1 -1 -2 -2.5t-1 -2.5q-1 -1 -1.5 -2t-0.5 -2l36 -40l-44 -53l-38 43q-4 -4 -7.5 -7t-6.5 -6q-4 -3 -7.5 -6t-7.5 -5q-5 -3 -10.5 -6t-11.5 -6q-3 -1 -5.5 -2t-5.5 -2q-8 -3 -16.5 -5t-17.5 -4q-8 -1 -17 -2t-18 -1t-17.5 1
t-16.5 2l-16 4t-16 6q-7 3 -14.5 7.5t-14.5 8.5q-4 2 -7.5 4.5t-6.5 5.5q-4 2 -7.5 5t-7.5 6l-37 -41l-44 53v0v0v0zM387 303q0 17 -3 33t-8 31t-13 30t-18 28q-11 14 -23 23.5t-25 16.5t-27 10.5t-29 3.5h-1.5h-0.5v0v0v0v0v0v0h-1v0v0v0v0v0v0v0v0v0v0v0v0v0v0v0h-1v0v0v0
h-1.5h-0.5v0v0v0v0v0v0q-16 0 -31 -3.5t-29 -9.5q-13 -6 -25.5 -15.5t-23.5 -22.5q-10 -13 -18.5 -27t-13.5 -30q-6 -16 -8.5 -33t-2.5 -36v-1.5v-0.5v0v0v-1.5v-0.5v0v0v0v0v0v0v-1v0v0v0v0v0v0v0v-1v0v0v0v-1.5v-0.5v0v0v0v0v0v0q0 -18 2.5 -34.5t8.5 -31.5q5 -15 14 -29
t20 -27t23 -22.5t25 -16.5t27.5 -10t29.5 -3q17 0 31.5 3t27.5 10q14 7 26.5 17t23.5 23t19.5 27.5t13.5 30.5q6 16 9 33.5t3 36.5v2v0v0z" />
    <glyph glyph-name="guilsinglleft" unicode="&#x2039;" horiz-adv-x="213" 
d="M130 101l-96 200l96 199l49 -31l-80 -168l80 -168l-49 -32v0v0v0z" />
    <glyph glyph-name="guilsinglright" unicode="&#x203a;" horiz-adv-x="213" 
d="M83 101l-49 32l79 168l-79 168l49 31l96 -199l-96 -200v0v0v0z" />
    <glyph glyph-name="fi" unicode="&#xf001;" horiz-adv-x="413" 
d="M83 0v480h-72v67h72v0v1v1.5v1.5v0v1v0v0v0.5v1.5v0v0v0.5v1.5q0 21 2.5 40.5t8.5 35.5q6 17 14.5 31t20.5 26q11 11 24 20t28 15q16 6 32.5 9t35.5 4l11 2v-68l-11 1q-13 -1 -23.5 -3.5t-20.5 -5.5q-10 -4 -18 -9t-15 -12t-12 -16t-8 -20q-4 -10 -5.5 -23t-1.5 -27l1 -9
h115v-67h-115v-480h-63v0v0v0zM297 0v547h63v-547h-63v0v0v0zM297 613v126h63v-126h-63v0v0v0z" />
    <glyph glyph-name="fl" unicode="&#xf002;" horiz-adv-x="412" 
d="M83 0v480h-72v67h72v0v1v1.5v1.5v0v1v0v0v0.5v1.5v0v0v0.5v1.5q0 22 2.5 41.5t8.5 35.5q6 17 14.5 30.5t20.5 25.5q11 11 24 20t28 15q16 6 32.5 9t35.5 4l11 2v-67h-11q-13 -1 -23.5 -3.5t-20.5 -5.5q-10 -4 -18 -9t-14 -12q-7 -7 -12 -16t-8 -20q-4 -10 -5.5 -23
t-1.5 -27v-9h115v-67h-115v-480h-63v0v0v0zM295 0v739h63v-739h-63v0v0v0z" />
    <glyph glyph-name="daggerdbl" unicode="&#x2021;" horiz-adv-x="470" 
d="M266 739v-177h153v-69h-153v-94h153v-66h-153v-461h-62v461h-154v66h154v94h-154v69h154v177h62v0v0v0z" />
    <glyph glyph-name="periodcentered" unicode="&#x2219;" 
d="M85 238v126h63v-126h-63v0v0v0z" />
    <glyph glyph-name="quotesinglbase" unicode="&#x201a;" 
 />
    <glyph glyph-name="quotedblbase" unicode="&#x201e;" horiz-adv-x="426" 
d="M75 -67l75 193h63l-75 -193h-63v0v0v0zM201 -67l75 193h62l-74 -193h-63v0v0v0z" />
    <glyph glyph-name="perthousand" unicode="&#x2030;" horiz-adv-x="997" 
d="M492 338q15 -1 29.5 -5t27.5 -11t25 -16.5t22 -23.5q11 -13 19 -28t13 -30q5 -16 8 -32.5t3 -34.5t-3 -34.5t-8 -31.5q-6 -15 -14 -29t-19 -26q-11 -13 -23 -22t-25 -14q-13 -6 -27.5 -9t-28.5 -3q-16 0 -30 3t-27 9q-13 5 -25 14t-23 22t-19.5 27t-13.5 29
q-6 15 -8.5 31.5t-2.5 34.5t2.5 35t8.5 33q5 16 13.5 30.5t18.5 27.5q11 13 23.5 22.5t25.5 16.5q13 6 27.5 9.5t30.5 3.5v2v0v0zM492 267q-10 -1 -19 -3.5t-17 -6.5t-15 -10.5t-14 -14.5q-6 -8 -11 -17t-8 -19t-4.5 -21t-1.5 -22t1.5 -21t4.5 -18q4 -9 9 -16.5t12 -14.5
q6 -7 13.5 -12t14.5 -8q8 -4 16.5 -5.5t17.5 -1.5t18 1.5t16 5.5q8 3 14.5 9t13.5 13q6 7 10.5 15t8.5 17q3 9 4.5 19t1.5 21t-1.5 20.5t-4.5 19.5q-4 9 -8.5 18t-10.5 17q-7 8 -13.5 14.5t-14.5 10.5q-7 4 -15.5 6t-17.5 2v2v0v0zM831 338q15 -1 29.5 -5t27.5 -11t25 -16.5
t22 -23.5q11 -13 19 -28t13 -30q5 -16 8 -32.5t3 -34.5t-3 -34.5t-8 -31.5q-6 -15 -14 -29t-19 -26q-11 -13 -23 -22t-25 -14q-13 -6 -27 -9t-29 -3t-29.5 3t-27.5 9q-13 5 -25 14t-23 22t-19.5 27t-13.5 29t-8 31.5t-3 34.5t3 35t8 33t13.5 30.5t19.5 27.5t23 22.5t25 16.5
q13 6 27.5 9.5t30.5 3.5v2v0v0zM831 267q-10 -1 -19 -3.5t-17 -6.5t-15 -10.5t-14 -14.5q-6 -8 -11 -17t-7 -19q-4 -10 -5 -20.5t-1 -21.5t1 -21t5 -19q3 -9 8 -16.5t12 -14.5q6 -7 13.5 -12t14.5 -8q8 -4 16 -5.5t17 -1.5q10 0 19 1.5t16 5.5q8 3 15 9t13 13q7 7 11 15
t8 17q3 9 5 19t2 21t-2 20.5t-5 19.5l-8 18t-11 17q-6 8 -13 14.5t-15 10.5q-7 4 -15.5 6t-17.5 2v2v0v0zM153 0l283 739h61l-282 -739h-62v0v0v0zM160 751q16 -1 30 -5t27 -11t25 -16.5t23 -23.5q10 -13 18 -28t12 -30q5 -16 8 -32.5t3 -34.5t-3 -34.5t-8 -31.5t-13.5 -29
t-19.5 -26q-10 -13 -22 -22.5t-25 -15.5t-27 -9t-29 -3t-29.5 3t-27.5 9t-24.5 15.5t-22.5 22.5q-12 13 -20 27t-13 29q-6 15 -8.5 32t-2.5 35t2.5 35t7.5 33t13.5 30t18.5 27q11 13 23.5 22.5t25.5 16.5q13 6 27.5 9.5t30.5 3.5v2v0v0zM160 680v1q-10 -1 -19 -3.5t-17 -7.5
q-8 -4 -15 -9.5t-13 -13.5q-7 -8 -12 -17t-7 -18q-3 -9 -4.5 -19.5t-1.5 -21.5t1.5 -21t4.5 -19t8 -17t11 -15q7 -7 14 -13t14 -9q4 -2 8.5 -3.5t8.5 -1.5q4 -1 8.5 -1.5t8.5 -0.5q9 0 18 1.5t16 5.5q8 4 15 10t14 13q6 8 10.5 16t7.5 18q3 9 5 19.5t2 21.5q0 10 -2 19.5
t-5 18.5t-7.5 17.5t-10.5 16.5q-7 8 -14 13.5t-15 9.5q-7 4 -15 6t-17 2v2v0v0z" />
    <glyph glyph-name="Acircumflex" unicode="&#xc2;" horiz-adv-x="629" 
d="M9 0l271 739h70l269 -739h-68l-91 248h-292l-91 -248h-68v0v0v0zM192 315h244l-121 339l-123 -339v0v0v0zM164 805l123 126h54l123 -126h-76l-74 73l-74 -73h-76v0v0v0z" />
    <glyph glyph-name="Ecircumflex" unicode="&#xca;" horiz-adv-x="455" 
d="M64 0v739h344v-67h-281v-266h271v-67h-271v-272h281v-67h-344v0v0v0zM77 805l123 126h55l123 -126h-77l-74 73l-74 -73h-76v0v0v0z" />
    <glyph glyph-name="Aacute" unicode="&#xc1;" horiz-adv-x="629" 
d="M9 0l271 739h70l269 -739h-68l-91 248h-292l-91 -248h-68v0v0v0zM192 315h244l-121 339l-123 -339v0v0v0zM218 861l163 116l30 -58l-164 -114l-29 56v0v0v0z" />
    <glyph glyph-name="Edieresis" unicode="&#xcb;" horiz-adv-x="455" 
d="M64 0v739h344v-67h-281v-266h271v-67h-271v-272h281v-67h-344v0v0v0zM134 931h63v-126h-63v126v0v0v0zM259 931h63v-126h-63v126v0v0v0z" />
    <glyph glyph-name="Egrave" unicode="&#xc8;" horiz-adv-x="455" 
d="M64 0v739h344v-67h-281v-266h271v-67h-271v-272h281v-67h-344v0v0v0zM157 971l168 -108l-28 -58l-167 106l27 60v0v0v0z" />
    <glyph glyph-name="Iacute" unicode="&#xcd;" horiz-adv-x="192" 
d="M64 0v739h63v-739h-63v0v0v0zM0 861l163 116l29 -58l-164 -114l-28 56v0v0v0z" />
    <glyph glyph-name="Icircumflex" unicode="&#xce;" horiz-adv-x="192" 
d="M64 0v739h63v-739h-63v0v0v0zM-54 805l122 126h55l123 -126h-76l-74 73l-74 -73h-76v0v0v0z" />
    <glyph glyph-name="Idieresis" unicode="&#xcf;" horiz-adv-x="192" 
d="M64 0v739h63v-739h-63v0v0v0zM2 931h63v-126h-63v126v0v0v0zM127 931h63v-126h-63v126v0v0v0z" />
    <glyph glyph-name="Igrave" unicode="&#xcc;" horiz-adv-x="192" 
d="M64 0v739h63v-739h-63v0v0v0zM25 971l168 -108l-28 -58l-166 106l26 60v0v0v0z" />
    <glyph glyph-name="Oacute" unicode="&#xd3;" horiz-adv-x="738" 
d="M368 751q34 -1 65 -8.5t60 -21.5q29 -13 56 -34t52 -48q25 -28 43.5 -58.5t31.5 -63.5q12 -34 18.5 -70.5t6.5 -76.5t-6.5 -77.5t-18.5 -71.5q-13 -34 -31 -65t-42 -59q-25 -28 -52 -48.5t-56 -34.5q-29 -13 -61 -19.5t-66 -6.5q-33 0 -64 6t-60 19q-29 14 -55.5 34
t-52.5 48q-25 27 -43 57.5t-31 64.5t-19 70.5t-6 76.5t6 77t18 71q12 35 30.5 66t43.5 59q24 28 51 49t56 35t60.5 21t65.5 7v2v0v0zM369 58q28 -1 53.5 4t49.5 16t45.5 28.5t41.5 40.5t34.5 48t24.5 53t15 58.5t5 63.5q0 32 -5 61.5t-16 56.5q-10 27 -25 52.5t-35 47.5
q-20 23 -42 39.5t-45 27.5q-24 11 -49 17t-52 6q-28 0 -54 -6t-49 -17q-25 -12 -46.5 -29t-41.5 -40q-19 -23 -34 -48.5t-25 -53.5t-14.5 -58t-4.5 -62t4.5 -62t14.5 -57q11 -27 26 -51.5t36 -47.5q20 -22 42 -39.5t45 -28.5q24 -11 49.5 -16.5t51.5 -5.5v2v0v0zM272 861
l164 116l29 -58l-164 -114l-29 56v0v0v0z" />
    <glyph glyph-name="Ocircumflex" unicode="&#xd4;" horiz-adv-x="738" 
d="M368 751q34 -1 65 -8.5t60 -21.5q29 -13 56 -34t52 -48q25 -28 43.5 -58.5t31.5 -63.5q12 -34 18.5 -70.5t6.5 -76.5t-6.5 -77.5t-18.5 -71.5q-13 -34 -31 -65t-42 -59q-25 -28 -52 -48.5t-56 -34.5q-29 -13 -61 -19.5t-66 -6.5q-33 0 -64 6t-60 19q-29 14 -55.5 34
t-52.5 48q-25 27 -43 57.5t-31 64.5t-19 70.5t-6 76.5t6 77t18 71q12 35 30.5 66t43.5 59q24 28 51 49t56 35t60.5 21t65.5 7v2v0v0zM369 58q28 -1 53.5 4t49.5 16t45.5 28.5t41.5 40.5t34.5 48t24.5 53t15 58.5t5 63.5q0 32 -5 61.5t-16 56.5q-10 27 -25 52.5t-35 47.5
q-20 23 -42 39.5t-45 27.5q-24 11 -49 17t-52 6q-28 0 -54 -6t-49 -17q-25 -12 -46.5 -29t-41.5 -40q-19 -23 -34 -48.5t-25 -53.5t-14.5 -58t-4.5 -62t4.5 -62t14.5 -57q11 -27 26 -51.5t36 -47.5q20 -22 42 -39.5t45 -28.5q24 -11 49.5 -16.5t51.5 -5.5v2v0v0zM219 805
l123 126h54l124 -126h-77l-74 73l-74 -73h-76v0v0v0z" />
    <glyph glyph-name="apple" unicode="&#xf000;" 
 />
    <glyph glyph-name="Ograve" unicode="&#xd2;" 
 />
    <glyph glyph-name="Uacute" unicode="&#xda;" horiz-adv-x="556" 
d="M64 739h63v-449v-6v-5v-5.5v-4.5v-4.5v-4.5v-4.5t1 -4.5q0 -8 0.5 -15.5t1.5 -15.5q1 -7 2.5 -14.5t3.5 -15.5q1 -7 3 -14.5t4 -14.5l6 -14t7 -14q5 -10 10.5 -18t12.5 -15q6 -7 14 -13t16 -11t16.5 -9t17.5 -6q8 -3 17 -4t18 -1v0h1v0v0h0.5h1.5h0.5h1.5v0h1q4 0 8 0.5
t8 0.5q3 1 7 2l8 2q8 2 15.5 6t14.5 8q5 3 9.5 6t8.5 6q2 2 4.5 4t4.5 4q6 6 11.5 13t10.5 15t9 17l8 18l6 18t4 19q2 10 3 19.5t2 19.5t1.5 19.5t1.5 19.5v0.5v1.5v0.5v1.5v0v1v0.5v1.5v2v2v2v2v451h63v-449q0 -15 -0.5 -29t-2.5 -28q0 -5 -0.5 -9.5t-1.5 -9.5
q-1 -9 -1.5 -17.5t-2.5 -17.5q-1 -13 -4.5 -26.5t-8.5 -25.5q-5 -13 -11 -25t-14 -23q-7 -12 -15.5 -22t-17.5 -19q-10 -9 -20 -16t-21 -13q-11 -5 -22.5 -8.5t-22.5 -6.5q-7 -2 -15.5 -3.5t-16.5 -1.5q-4 -1 -8 -1h-8q-12 0 -23.5 1.5t-22.5 4.5q-8 2 -15.5 4t-14.5 4
q-4 1 -7.5 2.5t-7.5 3.5q-10 5 -20.5 12t-19.5 15t-17 17.5t-16 20.5t-15 23t-12 25t-8.5 26.5t-5.5 27.5q-2 10 -3.5 20t-2.5 21q0 3 -0.5 6.5t-0.5 7.5q-1 14 -1.5 28.5t-0.5 29.5v451v0v0v0zM181 861l164 116l29 -58l-164 -114l-29 56v0v0v0z" />
    <glyph glyph-name="Ucircumflex" unicode="&#xdb;" horiz-adv-x="556" 
d="M64 739h63v-449v-6v-5v-5.5v-4.5v-4.5v-4.5v-4.5t1 -4.5q0 -8 0.5 -15.5t1.5 -15.5q1 -7 2.5 -14.5t3.5 -15.5q1 -7 3 -14.5t4 -14.5l6 -14t7 -14q5 -10 10.5 -18t12.5 -15q6 -7 14 -13t16 -11t16.5 -9t17.5 -6q8 -3 17 -4t18 -1v0h1v0v0h0.5h1.5h0.5h1.5v0h1q4 0 8 0.5
t8 0.5q3 1 7 2l8 2q8 2 15.5 6t14.5 8q5 3 9.5 6t8.5 6q2 2 4.5 4t4.5 4q6 6 11.5 13t10.5 15t9 17l8 18l6 18t4 19q2 10 3 19.5t2 19.5t1.5 19.5t1.5 19.5v0.5v1.5v0.5v1.5v0v1v0.5v1.5v2v2v2v2v451h63v-449q0 -15 -0.5 -29t-2.5 -28q0 -5 -0.5 -9.5t-1.5 -9.5
q-1 -9 -1.5 -17.5t-2.5 -17.5q-1 -13 -4.5 -26.5t-8.5 -25.5q-5 -13 -11 -25t-14 -23q-7 -12 -15.5 -22t-17.5 -19q-10 -9 -20 -16t-21 -13q-11 -5 -22.5 -8.5t-22.5 -6.5q-7 -2 -15.5 -3.5t-16.5 -1.5q-4 -1 -8 -1h-8q-12 0 -23.5 1.5t-22.5 4.5q-8 2 -15.5 4t-14.5 4
q-4 1 -7.5 2.5t-7.5 3.5q-10 5 -20.5 12t-19.5 15t-17 17.5t-16 20.5t-15 23t-12 25t-8.5 26.5t-5.5 27.5q-2 10 -3.5 20t-2.5 21q0 3 -0.5 6.5t-0.5 7.5q-1 14 -1.5 28.5t-0.5 29.5v451v0v0v0zM128 805l123 126h55l123 -126h-77l-74 73l-74 -73h-76v0v0v0z" />
    <glyph glyph-name="Ugrave" unicode="&#xd9;" horiz-adv-x="556" 
d="M64 739h63v-449v-6v-5v-5.5v-4.5v-4.5v-4.5v-4.5t1 -4.5q0 -8 0.5 -15.5t1.5 -15.5q1 -7 2.5 -14.5t3.5 -15.5q1 -7 3 -14.5t4 -14.5l6 -14t7 -14q5 -10 10.5 -18t12.5 -15q6 -7 14 -13t16 -11t16.5 -9t17.5 -6q8 -3 17 -4t18 -1v0h1v0v0h0.5h1.5h0.5h1.5v0h1q4 0 8 0.5
t8 0.5q3 1 7 2l8 2q8 2 15.5 6t14.5 8q5 3 9.5 6t8.5 6q2 2 4.5 4t4.5 4q6 6 11.5 13t10.5 15t9 17l8 18l6 18t4 19q2 10 3 19.5t2 19.5t1.5 19.5t1.5 19.5v0.5v1.5v0.5v1.5v0v1v0.5v1.5v2v2v2v2v451h63v-449q0 -15 -0.5 -29t-2.5 -28q0 -5 -0.5 -9.5t-1.5 -9.5
q-1 -9 -1.5 -17.5t-2.5 -17.5q-1 -13 -4.5 -26.5t-8.5 -25.5q-5 -13 -11 -25t-14 -23q-7 -12 -15.5 -22t-17.5 -19q-10 -9 -20 -16t-21 -13q-11 -5 -22.5 -8.5t-22.5 -6.5q-7 -2 -15.5 -3.5t-16.5 -1.5q-4 -1 -8 -1h-8q-12 0 -23.5 1.5t-22.5 4.5q-8 2 -15.5 4t-14.5 4
q-4 1 -7.5 2.5t-7.5 3.5q-10 5 -20.5 12t-19.5 15t-17 17.5t-16 20.5t-15 23t-12 25t-8.5 26.5t-5.5 27.5q-2 10 -3.5 20t-2.5 21q0 3 -0.5 6.5t-0.5 7.5q-1 14 -1.5 28.5t-0.5 29.5v451v0v0v0zM208 971l168 -108l-28 -58l-167 106l27 60v0v0v0z" />
    <glyph glyph-name="dotlessi" unicode="&#x131;" horiz-adv-x="170" 
d="M53 0v547h63v-547h-63v0v0v0z" />
    <glyph glyph-name="circumflex" unicode="&#x2c6;" horiz-adv-x="373" 
d="M284 700l26 -48q-3 -4 -6 -7.5t-6 -6.5q-1 -1 -3 -2.5t-3 -2.5q-2 -2 -3.5 -3t-3.5 -2q-4 -3 -7.5 -5t-7.5 -4t-7.5 -3.5t-6.5 -2.5q-1 -1 -2 -1.5t-3 -0.5h-1.5h-0.5h-0.5h-0.5h-1.5h-0.5h-1.5h-1.5h-1.5h-1.5h-6t-5 1h-2.5t-2.5 1q-1 0 -2.5 0.5t-2.5 0.5q-3 1 -5.5 2
t-4.5 2q-1 0 -2.5 0.5t-2.5 1.5l-3 1.5l-3 1.5h-0.5h-1.5t-1.5 0.5t-0.5 1.5h-1.5t-0.5 1v0v0q-1 0 -1.5 0.5l-1.5 1.5q-1 0 -1.5 0.5t-0.5 1.5q-1 0 -1.5 0.5t-1.5 0.5t-1.5 0.5t-0.5 1.5q-1 0 -1.5 0.5t-1.5 0.5t-2 0.5t-2 1.5q-1 0 -1.5 0.5l-1.5 1.5t-1.5 1t-0.5 1h-0.5
h-0.5q-1 0 -2 0.5t-2 1.5h-0.5t-0.5 1h-1.5h-0.5q-1 0 -2 0.5t-2 1.5h-0.5t-1.5 1h-1.5h-0.5q-1 0 -1.5 0.5l-1.5 1.5q-1 0 -2 0.5t-2 0.5q-1 1 -2 1h-2h-2t-1 1h-2h-2h-1.5h-0.5h-1.5h-0.5h-1.5h-0.5v0v0q-3 -1 -6 -1.5t-6 -2.5q-4 -1 -6.5 -3t-4.5 -4q-4 -2 -6.5 -4.5
l-4.5 -4.5t-4 -4.5t-4 -4.5l-25 51q4 4 8 7.5t8 7.5l4 4t5 3l4 4t4 3q5 2 10 4.5t10 3.5q5 2 10.5 2.5t11.5 0.5h4t4 -1q2 0 4 -0.5t4 -0.5q4 -1 7.5 -1.5t6.5 -2.5q2 -1 3.5 -2t2.5 -1q2 -1 3.5 -2t3.5 -2q1 -1 2.5 -2t2.5 -1q2 -1 3.5 -2t2.5 -2t2 -1.5t2 -1.5
q1 0 1.5 -0.5t1.5 -0.5q0 -1 0.5 -1.5t1.5 -0.5q0 -1 0.5 -1.5t1.5 -0.5h0.5h1.5q0 -1 0.5 -1.5t1.5 -0.5h0.5h0.5l1 -1v0q1 -1 2 -1.5t2 -0.5q1 -1 2 -1.5t2 -0.5q1 -1 2 -1.5t2 -0.5v0h1q0 -1 0.5 -1h1.5q2 -1 4 -1.5t4 -0.5h2h2h1h2h1.5h1.5h0.5h0.5h0.5h1.5h1h2h0.5
t0.5 1l0.5 0.5l0.5 0.5q2 0 3 0.5t2 1.5q1 0 2 0.5t2 1.5l1 0.5t2 0.5q2 1 3 2l2 2q2 1 3 2l2 2q2 1 3 2l2 2t2 1.5t2 1.5q0 1 1 1.5t2 1.5v2v0v0z" />
    <glyph glyph-name="tilde" unicode="&#x2dc;" horiz-adv-x="426" 
d="M62 613l124 126h54l123 -126h-76l-74 73l-74 -73h-77v0v0v0z" />
    <glyph glyph-name="macron" unicode="&#x2c9;" horiz-adv-x="412" 
d="M62 680h287v-67h-287v67v0v0v0z" />
    <glyph glyph-name="breve" unicode="&#x2d8;" horiz-adv-x="385" 
d="M62 716h54q2 -6 4.5 -10.5t4.5 -8.5q3 -4 7 -7.5t8 -5.5q4 -3 8.5 -5t8.5 -4q5 -1 9.5 -2.5t8.5 -2.5q0 -1 1 -1.5t2 -0.5h1.5h1.5h0.5h1.5h2h2h2.5h2.5h1h2h1.5h1.5h0.5h1.5h2h2t2.5 0.5t2.5 1.5q5 1 9 2.5t8 2.5q4 2 8.5 4t8.5 5q4 2 7.5 5t6.5 7t6 8.5t4 9.5l54 2
q-3 -14 -7.5 -26t-10.5 -22q-7 -10 -14.5 -18t-16.5 -14q-9 -7 -18.5 -11.5t-20.5 -7.5q-10 -3 -20 -4.5t-21 -1.5q-9 0 -17 1l-16 2q-2 1 -4.5 1.5t-5.5 1.5q-10 3 -19.5 7.5t-18.5 11.5q-10 6 -17.5 13.5t-13.5 17.5t-10.5 22t-7.5 25v2v0v0z" />
    <glyph glyph-name="dotaccent" unicode="&#x2d9;" horiz-adv-x="188" 
d="M62 739h63v-126h-63v126v0v0v0z" />
    <glyph glyph-name="ring" unicode="&#x2da;" horiz-adv-x="282" 
d="M141 797q8 -1 15 -3.5t14 -5.5q8 -3 14 -8t12 -12t10 -14.5t7 -15.5q2 -8 4 -17t2 -18q0 -10 -2 -18.5t-4 -16.5q-3 -8 -7 -15.5t-10 -14.5t-12 -12t-14 -8q-7 -4 -14 -5.5t-15 -1.5t-16 1.5t-14 5.5q-7 3 -13.5 8t-12.5 12q-5 7 -9.5 14.5t-7.5 15.5t-4.5 16.5
t-1.5 18.5q0 9 1.5 18t4.5 17t7.5 15.5t9.5 14.5q6 7 12.5 12t13.5 8q6 3 14 5t16 2v2v0v0zM141 760q-5 -1 -9.5 -2.5t-8.5 -3.5t-8 -5t-8 -7t-6 -8t-4 -9q-1 -5 -2 -10.5t-1 -10.5q0 -6 1 -11.5t2 -10.5q2 -5 4 -9.5t6 -8.5t7.5 -7t7.5 -5t9 -3t10 -1t9 1t8 3q5 2 8.5 5
t7.5 7q3 4 5.5 8.5t4.5 8.5q2 5 2.5 10.5t0.5 11.5q0 5 -0.5 10.5t-2.5 10.5t-4.5 9.5t-5.5 8.5q-4 4 -7.5 7t-8.5 5q-4 2 -8 3t-9 1v2v0v0z" />
    <glyph glyph-name="cedilla" unicode="&#xb8;" horiz-adv-x="275" 
d="M140 0l-21 -58q0 2 0.5 2.5t1.5 0.5h0.5h1.5v1h1v0h1l1.5 1.5t1.5 0.5h1.5h0.5q1 1 2 1.5t2 0.5h1.5h1.5h2h2h2.5h2.5q5 0 9.5 -0.5t8.5 -1.5q2 0 4.5 -1t4.5 -2q6 -3 11.5 -7t9.5 -10q5 -5 8 -11.5t6 -13.5q2 -8 3 -16t1 -17t-2 -17.5t-4 -16.5t-6 -15.5t-9 -14.5
q-3 -5 -7.5 -8.5t-8.5 -6.5q-2 -2 -4 -3.5t-4 -2.5q-7 -3 -14 -5t-15 -2q-7 0 -14 1.5t-14 3.5q-6 3 -11.5 6t-10.5 8q-5 4 -9 10t-7 13t-5.5 14.5t-4.5 15.5l38 4q0 -1 0.5 -2t0.5 -3l0.5 -0.5l0.5 -0.5q0 -1 0.5 -2t0.5 -2q2 -2 3.5 -4.5t3.5 -4.5l2 -2t3 -2q1 0 2 -1
l2 -2l3 -1.5l3 -1.5q1 0 2.5 -0.5t2.5 -1.5v0v0h0.5h1.5v0v0h0.5h1.5v0h1v0v0v0h1v-0.5v-0.5v0h1v0v0h0.5h1.5q4 0 7.5 1t6.5 3q4 1 7 4t5 6q3 4 5 7.5t3 7.5q2 4 2 8.5v9.5t-0.5 9.5t-2.5 8.5q-1 4 -3.5 8t-4.5 7l-3.5 3.5l-3.5 3.5q-2 1 -3.5 2t-3.5 2q-4 1 -7.5 2t-7.5 1
h-6.5t-4.5 -1t-3.5 -1.5t-2.5 -1.5l-1.5 -1.5t-1.5 -0.5q-2 -2 -4 -3.5t-4 -3.5t-3.5 -4t-2.5 -5l-27 16l34 90h32v0v0v0z" />
    <glyph glyph-name="hungarumlaut" unicode="&#x2ba;" horiz-adv-x="469" 
d="M62 661l145 124l31 -49l-147 -123l-29 48v0v0v0zM230 661l145 124l32 -49l-147 -123l-30 48v0v0v0z" />
    <glyph glyph-name="ogonek" unicode="&#x2db;" horiz-adv-x="256" 
d="M126 0h43h-0.5h-0.5h-1.5h-0.5q-1 0 -1.5 -0.5t-0.5 -1.5q-1 0 -2 -0.5t-2 -1.5q-1 0 -1.5 -0.5t-0.5 -1.5q-1 0 -1.5 -0.5l-1.5 -1.5q-1 0 -1.5 -0.5t-0.5 -1.5q-1 0 -2 -0.5t-2 -1.5l-1.5 -1.5t-0.5 -1.5q-4 -3 -8.5 -7t-8.5 -8t-8 -8.5t-7 -8.5q-4 -5 -6.5 -9.5
t-4.5 -9.5q-1 -5 -2 -10.5t-1 -11.5q0 -7 1 -13t3 -12q2 -5 6 -9.5t8 -8.5q4 -3 8.5 -6t9.5 -4q5 -2 10 -3t11 -1h1h2h1.5h1.5q0 1 1 1h2h1.5h1.5q1 1 2.5 1.5t2.5 0.5h1h2v1h1h1h1v0h1q0 1 0.5 1h0.5h0.5h1.5v1h1v0h1v0v0v0h1q0 1 0.5 1h0.5h0.5h1.5v1.5t1 0.5v0h1v-45
q-3 0 -6 -1l-6 -2q-2 -1 -4.5 -1.5t-5.5 -1.5h-2.5t-2.5 -1h-3h-3h-2.5t-2.5 -1h-3h-3q-8 0 -15.5 1.5t-15.5 4.5t-15.5 7t-13.5 9q-7 6 -12 13t-9 15q-3 8 -4.5 17t-1.5 20q0 9 1 17t4 16q2 7 6 14.5t9 14.5t10 12.5t10 10.5q4 3 8 6.5t8 6.5q2 1 4 2.5t4 1.5v0v0v0z" />
    <glyph glyph-name="caron" unicode="&#x2c7;" horiz-adv-x="426" 
d="M62 739h79l73 -74l74 74h75l-120 -126h-57l-124 126v0v0v0z" />
    <glyph glyph-name="Lslash" unicode="&#x141;" horiz-adv-x="439" 
d="M103 0v320l-81 -80v87l81 80v332h63v-277l126 125v-85l-126 -125v-310h260v-67h-323v0v0v0z" />
    <glyph glyph-name="lslash" unicode="&#x142;" horiz-adv-x="255" 
d="M98 0v366l-68 -54v73l68 52v302h63v-255l68 53v-74l-68 -53v-410h-63v0v0v0z" />
    <glyph glyph-name="Scaron" unicode="&#x160;" horiz-adv-x="423" 
d="M18 207h67q0 -16 3 -30.5t8 -28.5q5 -13 11.5 -25t15.5 -23t18.5 -19.5t21.5 -13.5q11 -6 23 -8.5t25 -2.5q14 0 26.5 2.5t23.5 7.5q12 5 22 13t20 18t17 21.5t12 24.5q5 14 7 28.5t2 30.5v7.5t-1 7.5q0 3 -0.5 6.5t-1.5 7.5t-2 7.5t-2 7.5q-1 3 -2 6.5t-3 7.5
q-3 7 -6.5 13t-7.5 12t-8 11.5t-9 10.5q-2 2 -3.5 3t-3.5 3q-4 3 -7.5 6t-6.5 5t-5.5 3.5t-5.5 3.5q-3 1 -5.5 2.5t-5.5 2.5q-6 2 -12 4.5t-12 4.5q-4 2 -8 3.5t-8 2.5q-2 1 -4 1.5t-4 1.5h-1.5h-0.5v0v1h-1v0v0v0v0v0h-1v0v0v1h-1.5h-0.5v0v0h-1.5h-0.5v0v0q-1 0 -1 0.5
v0.5v0v0h-1v0v0v0h-1v0h-1.5h-0.5h-1v1h-1v0h-0.5t-0.5 1h-1v0q-2 1 -4.5 1.5t-4.5 1.5q-5 2 -9.5 3.5t-8.5 2.5q-3 1 -6.5 2.5t-6.5 2.5q-3 2 -6.5 3.5t-6.5 2.5q-2 1 -4 1.5t-4 1.5q-4 2 -8 4.5t-8 5.5q-7 5 -12.5 9.5t-10.5 10.5q-7 6 -12.5 13.5t-10.5 14.5
q-5 8 -9 16.5t-7 17.5q-4 9 -6 18t-4 19q-1 9 -2 19t-1 20q0 22 3 42t10 38q6 18 16 34t23 30t27 24t30 17q17 7 34 10.5t35 3.5t34.5 -3.5t32.5 -11.5q15 -7 29 -18t27 -25t22 -30t15 -34q7 -18 10 -37.5t3 -40.5l-66 2q-1 13 -3.5 25t-7.5 24q-4 11 -9.5 21.5t-13.5 19.5
l-6 6t-6 5q-6 5 -11.5 9t-12.5 7q-10 5 -21 7.5t-23 2.5t-22.5 -2.5t-20.5 -7.5q-10 -4 -18.5 -11.5t-16.5 -16.5q-7 -10 -13 -20.5t-10 -21.5q-4 -12 -5.5 -24t-1.5 -25q0 -16 2 -30.5t7 -25.5t11.5 -19.5t16.5 -14.5q6 -4 12.5 -8t13.5 -7q3 -2 6.5 -3.5t6.5 -3.5
q3 -1 5.5 -2t4.5 -2q8 -4 16 -7t17 -5v-0.5t1 -0.5v-1v0v0h1v0h1v0v0h0.5h1.5l0.5 -0.5l0.5 -0.5q0 -1 0.5 -1h0.5h2h2q0 -1 0.5 -1.5t1.5 -0.5h1.5h1.5h0.5h0.5l1 -1v0h2h2q0 -1 0.5 -1.5t1.5 -0.5h1.5h1.5q3 -1 6.5 -2t6.5 -3q3 -1 6.5 -2t6.5 -3q3 -1 6.5 -2.5t6.5 -2.5
q3 -2 6 -3t6 -3l4 -2l4 -2q4 -3 8 -5.5t8 -5.5q6 -4 12 -9t11 -11q8 -7 14 -15t11 -17l10 -18t9 -20q4 -10 6.5 -20.5t4.5 -21.5q1 -5 1.5 -10.5t1.5 -10.5q0 -6 0.5 -11.5t0.5 -10.5q0 -23 -3.5 -44t-10.5 -40q-8 -19 -19 -36.5t-25 -32.5q-14 -16 -29.5 -27t-32.5 -19
q-16 -7 -34 -10.5t-37 -3.5q-20 0 -39 3.5t-36 9.5q-17 8 -33 19t-30 27q-14 15 -25 32.5t-18 36.5q-7 20 -11 42t-3 47v2v0v0zM61 931h78l73 -74l74 74h76l-121 -126h-57l-123 126v0v0v0z" />
    <glyph glyph-name="scaron" unicode="&#x161;" horiz-adv-x="329" 
d="M15 161h63v-2v-1v0v0v0v0v0v0v-1v0v0v0v-1.5v-0.5v0v0v0v0v0v0q0 -10 1 -19.5t5 -18.5q2 -9 7 -16.5t11 -15.5q6 -7 13 -13t14 -9q8 -4 16 -5.5t17 -1.5q8 0 16 1.5t15 4.5q5 2 9.5 4.5t8.5 6.5q2 2 4.5 4t4.5 4q5 6 9.5 13.5t8.5 15.5q2 8 3.5 17.5t1.5 19.5
q0 12 -1.5 23t-4.5 20q-4 9 -9 16t-13 13l-14 10t-15 9t-16.5 7.5t-16.5 6.5h-1.5h-2.5q-1 0 -1.5 0.5l-0.5 0.5l-0.5 0.5l-0.5 0.5h-1.5t-0.5 1q-1 0 -1.5 0.5t-1.5 0.5t-1.5 0.5l-1.5 1.5q-5 2 -9.5 3.5t-9.5 3.5q-4 2 -8.5 4.5t-8.5 4.5t-8.5 5t-8.5 6t-8.5 7t-7.5 8
q-5 5 -9 10.5t-8 11.5t-6.5 12t-4.5 13l-4 14t-3 14t-1.5 14.5t-0.5 14.5q0 17 2 32t7 28q5 14 13 26.5t18 23.5t20.5 18.5t22.5 13.5q11 5 24 8t27 3q13 0 25 -3t24 -8q11 -6 21 -14t20 -19t17 -23t12 -25t7 -27t2 -29l-62 2q0 8 -2 15.5t-4 14.5q-3 7 -7 13t-9 11
q-4 5 -10 9t-13 7q-6 2 -13 3.5t-15 1.5q-7 0 -13.5 -1.5t-11.5 -4.5q-6 -3 -11 -7t-10 -9l-8 -12t-6 -13t-3 -14t-1 -15q0 -11 1 -20.5t5 -17.5q3 -8 8 -14t11 -11q2 -1 4.5 -2.5t4.5 -3.5q4 -3 8.5 -5.5t9.5 -4.5q7 -4 14.5 -7t14.5 -5q13 -5 25.5 -11t24.5 -12
q11 -7 21.5 -14.5t19.5 -15.5q10 -8 17 -18.5t12 -24.5q5 -13 7.5 -29.5t2.5 -34.5q0 -19 -3 -37t-8 -33q-4 -16 -12.5 -29.5t-18.5 -25.5q-11 -12 -23 -21t-26 -13q-13 -6 -28 -9t-31 -3q-15 0 -28 3t-26 9q-13 4 -24 13t-22 22q-10 12 -18 25t-13 28q-5 14 -7.5 30
t-2.5 33v0v0v0.5v1.5v0v0v0.5v1.5v0v0v0.5v1.5v0v0v0.5v1.5v2v0v0zM14 739h78l73 -74l74 74h76l-121 -126h-57l-123 126v0v0v0z" />
    <glyph glyph-name="Zcaron" unicode="&#x17d;" 
 />
    <glyph glyph-name="zcaron" unicode="&#x17e;" 
 />
    <glyph glyph-name="brokenbar" unicode="&#xa6;" 
 />
    <glyph glyph-name="Eth" unicode="&#xd0;" horiz-adv-x="671" 
d="M277 0h-174v360h-81v67h81v312h169q8 -1 16.5 -1.5t17.5 -1.5q8 -1 16.5 -2t16.5 -2q16 -3 31.5 -6t31.5 -7q11 -3 20.5 -7t19.5 -9q5 -2 10 -4.5t10 -5.5q14 -8 28.5 -18.5t28.5 -23.5t25.5 -27.5t21.5 -30.5q11 -16 20.5 -33t16.5 -36q8 -19 13.5 -37.5t9.5 -38.5
q2 -10 3.5 -20t2.5 -19q1 -10 1.5 -20t0.5 -20q0 -20 -2 -39.5t-5 -38.5q-4 -19 -9 -37t-12 -36t-15 -35t-17 -32q-10 -16 -20.5 -30t-22.5 -27q-14 -15 -28.5 -27.5t-29.5 -22.5q-7 -5 -15 -9t-15 -8q-8 -3 -15.5 -6t-15.5 -5q-10 -3 -21.5 -5.5t-22.5 -4.5
q-5 -1 -10.5 -1.5t-11.5 -1.5q-11 -1 -22.5 -1.5t-23.5 -1.5h-11.5h-11.5v0v0v0zM166 67h81q8 0 15.5 -0.5t15.5 -0.5q7 0 15 0.5t15 1.5q15 2 29.5 3.5t28.5 3.5q10 2 18.5 4.5t17.5 5.5q5 2 9.5 4.5t8.5 4.5q14 7 27.5 16.5t26.5 22.5q11 11 22 23t19 25q9 13 16.5 27
t13.5 30q6 15 10.5 31t7.5 32q3 17 5 33.5t3 34.5q-1 18 -3 35t-5 33q-3 17 -7.5 32t-10.5 30q-6 14 -13.5 28t-16.5 27q-8 14 -19 26t-23 23q-13 11 -26.5 20.5t-27.5 16.5q-13 8 -26.5 12.5t-27.5 7.5q-14 2 -28.5 4t-29.5 3q-9 1 -19.5 1.5t-20.5 1.5h-10h-10l-81 2v-245
h111v-67h-111v-293v0v0v0z" />
    <glyph glyph-name="eth" unicode="&#xf0;" horiz-adv-x="556" 
d="M279 -13q-25 1 -48 6t-44 14q-22 10 -42 25t-38 36q-18 20 -31.5 43t-22.5 48t-13.5 52t-4.5 57q0 31 4.5 59.5t13.5 53.5q9 26 22.5 49t31.5 44q17 20 37 36t42 26q22 11 45 16t48 5h3.5h2.5q2 -1 3.5 -1h2.5h3.5h3.5q1 -1 3 -1h3q3 -1 6 -1.5t7 -0.5q3 -1 6 -1.5
t7 -1.5q6 -1 11.5 -3.5t10.5 -4.5q3 -1 5.5 -2.5t5.5 -2.5q3 -2 5.5 -3t5.5 -3q5 -3 10.5 -6.5t10.5 -7.5q2 -2 4.5 -4t4.5 -4q2 -3 4.5 -5t4.5 -4l1 4q-3 5 -7 11t-9 13q-5 8 -10.5 16t-13.5 18q-7 9 -17 19t-21 22q-12 11 -26 24t-30 27l-93 -36l-52 26l97 40l-5 2.5
t-6 2.5q-2 2 -4.5 3.5t-5.5 2.5t-6 2.5t-6 2.5q-3 2 -6 3.5t-6 2.5q-6 2 -12 4.5t-12 5.5q-7 3 -13.5 6t-13.5 6h-0.5h-1.5t-2 0.5t-1 1.5h-1.5h-1.5t-1.5 0.5l-1.5 1.5h-0.5h-0.5h-0.5h-0.5q-1 0 -2 0.5t-1 1.5h-1.5h-1.5t-1.5 0.5l-1.5 1.5l2 4l105 -1q0 -1 0.5 -2t1.5 -1
h0.5h1.5q0 -1 0.5 -1h0.5q0 -1 1 -1.5t2 -0.5h1.5h1.5q1 -1 2.5 -1.5t2.5 -0.5h2.5h2.5t2 -0.5t2 -0.5q0 -1 1 -1.5t2 -0.5t2 -0.5t2 -0.5q0 -1 1 -1.5t2 -0.5q1 -1 2 -1.5t2 -0.5q0 -1 1 -1h2q0 -1 1 -1.5t2 -0.5q0 -1 1 -1.5t2 -0.5l1.5 -1.5l1.5 -1.5q1 0 1.5 -0.5
t1.5 -0.5q0 -1 0.5 -1.5t1.5 -0.5v-1.5t1 -0.5h0.5h1.5q0 -1 0.5 -1.5t1.5 -0.5h0.5h0.5q0 -1 0.5 -1h0.5l122 52l47 -28l-121 -50q19 -13 36.5 -29.5t33.5 -36.5q17 -19 32.5 -42.5t29.5 -49.5t24.5 -54.5t17.5 -60.5q7 -31 11 -64.5t4 -68.5q0 -31 -4.5 -59.5t-13.5 -54.5
t-22.5 -49.5t-30.5 -43.5q-18 -21 -37 -36t-41 -25q-22 -9 -45 -14t-48 -5v-1v0v0zM279 488q-19 -1 -37 -6t-34 -13t-30.5 -20t-27.5 -28t-23 -33.5t-16 -37.5q-7 -19 -10 -39.5t-3 -42.5t3 -42.5t10 -39.5q6 -19 16.5 -36t23.5 -32q14 -16 28 -27.5t30 -19.5q17 -7 34 -11
t36 -4q20 0 37.5 4t33.5 12t30.5 20.5t27.5 28.5q12 16 21 33.5t16 36.5q6 20 9.5 41t3.5 43q0 21 -3.5 41t-10.5 39q-6 18 -15.5 35t-22.5 33t-28 28t-30 19q-16 8 -33 12t-36 4v2v0v0z" />
    <glyph glyph-name="Yacute" unicode="&#xdd;" 
 />
    <glyph glyph-name="yacute" unicode="&#xfd;" 
 />
    <glyph glyph-name="Thorn" unicode="&#xde;" horiz-adv-x="503" 
d="M245 149h-118v-149h-63v739h63v-149h102q5 -1 10.5 -1.5t11.5 -0.5q5 -1 10.5 -1.5t10.5 -0.5q6 -1 11.5 -1.5t10.5 -0.5q5 -1 10.5 -1.5t11.5 -0.5q4 0 7.5 -1t6.5 -2q7 -1 14.5 -3.5t13.5 -5.5q11 -4 20.5 -9.5t18.5 -12.5q11 -7 20 -16t16 -19q8 -10 14.5 -20.5
t11.5 -22.5t8.5 -24.5t6.5 -25.5q2 -13 4 -26.5t2 -27.5q0 -13 -1 -25t-3 -24l-6 -24t-8 -23q-4 -11 -10 -21.5t-12 -19.5q-7 -10 -15 -18t-17 -16t-18.5 -14.5t-19.5 -11.5q-10 -4 -19.5 -8t-20.5 -6l-10 -2l-10 -2q-6 0 -11 -1t-10 -1q-6 -1 -11.5 -1.5t-10.5 -0.5h-10.5
h-11.5v2v0v0zM127 523v-307h108q2 0 4 -0.5t4 -0.5h4h4h8.5h8.5h7.5t7.5 1h4t5 1q2 0 4 0.5t4 0.5q8 1 16.5 3t15.5 6q3 1 5 2t5 3q5 2 10 5.5t10 6.5q6 5 11.5 10t10.5 11q4 4 6.5 8.5t5.5 9.5q2 3 3.5 5.5t2.5 5.5q3 8 5.5 16t4.5 16t3 17l2 18v0v1v0.5v1.5v0v1v0v0v0.5
v1.5q0 12 -1.5 23.5t-3.5 21.5q-3 11 -7 20.5t-9 18.5q-4 9 -10.5 16.5t-13.5 14.5t-15.5 13t-17.5 10q-1 0 -2.5 0.5t-2.5 1.5q-2 0 -3 0.5l-3 1.5t-4.5 2t-4.5 2q-1 0 -2.5 0.5t-2.5 1.5q-1 0 -2.5 0.5t-2.5 0.5h-2.5t-2.5 1q-1 0 -2.5 0.5t-2.5 0.5h-2.5t-2.5 1h-3h-2
h-2.5t-2.5 1h-3h-3h-2.5t-2.5 1h-3h-3h-2.5h-2.5h-2.5h-2.5h-1.5h-0.5h-0.5h-0.5h-2h-2h-0.5h-1.5h-1.5h-0.5h-2h-1h-3.5h-3.5h-3.5h-3.5h-1.5h-1.5h-1.5h-0.5h-2h-1h-1.5h-1.5h-1.5h-0.5h-1.5h-1.5h-2.5h-2.5l-81 2v0v0v0z" />
    <glyph glyph-name="thorn" unicode="&#xfe;" horiz-adv-x="579" 
d="M53 739h63v-282h2q4 8 8.5 15.5t10.5 14.5q7 7 14 13.5t15 12.5q8 5 16.5 10t17.5 9q8 5 17 8.5t19 6.5h2t2 1l1 0.5t2 0.5q2 0 4.5 0.5t4.5 1.5h1.5t1.5 1h2.5h2.5h2t2 1l1 0.5t2 0.5q4 1 8 1.5t8 0.5h4t4 1h3h4q6 0 12.5 -0.5t12.5 -1.5t12.5 -2t12.5 -3q12 -3 24 -7.5
t24 -10.5q12 -7 24 -15t23 -18q8 -7 15.5 -14.5t14.5 -16.5q4 -4 7.5 -8t7.5 -9q3 -3 5.5 -6t4.5 -7t4.5 -7.5t5.5 -8.5q5 -9 10 -20t9 -23q4 -13 7 -26t5 -27q2 -13 3.5 -27.5t1.5 -29.5q0 -31 -5 -58.5t-15 -53.5q-10 -25 -23.5 -48t-32.5 -43t-39.5 -35t-42.5 -25
q-22 -8 -45.5 -13t-48.5 -5h-2h-1h-2h-2q-1 1 -2 1h-2h-2h-2h-1.5h-1.5h-1.5h-0.5h-0.5h-0.5q-1 1 -2.5 1h-2.5h-1.5h-1.5q-3 1 -6 1.5t-5 0.5q-9 2 -17.5 4.5t-15.5 4.5l-14 6t-14 7q-4 2 -7 4.5t-7 4.5q-10 7 -19 15t-17 18q-7 9 -12.5 20t-10.5 24l-2 2v-294h-63v931v0v0
v0zM294 58q19 -1 37.5 2.5t34.5 10.5q17 8 32 19t28 27q14 15 24 32t17 36q7 20 10.5 41t3.5 44q0 22 -3.5 42.5t-10.5 39.5q-6 20 -16 37t-24 33q-13 16 -27.5 28t-31.5 20q-4 2 -8.5 3.5t-8.5 3.5q-13 4 -26 6.5t-27 2.5q-19 0 -37 -3.5t-35 -11.5q-16 -7 -31 -18.5
t-29 -26.5t-24 -32t-17 -36t-10 -39t-3 -43q0 -11 0.5 -21.5t1.5 -21.5q2 -10 4 -20.5t5 -19.5q2 -10 5.5 -19t8.5 -18t11 -17t13 -16t14 -15.5t14 -13.5q8 -6 15.5 -11t16.5 -10q8 -4 17 -7.5t18 -5.5t18.5 -3t19.5 -1v2v0v0z" />
    <glyph glyph-name="minus" unicode="&#x2212;" 
 />
    <glyph glyph-name="onesuperior" unicode="&#xb9;" 
 />
    <glyph glyph-name="twosuperior" unicode="&#xb2;" 
 />
    <glyph glyph-name="threesuperior" unicode="&#xb3;" 
 />
    <glyph glyph-name="onehalf" unicode="&#xbd;" horiz-adv-x="706" 
d="M175 0l283 739h54l-282 -739h-55v0v0v0zM430 0v40l155 163q0 -1 0.5 -1h1.5l0.5 0.5l1.5 1.5v0.5t1 1.5l0.5 0.5l1.5 1.5q5 5 9.5 10.5t9.5 11.5t9.5 12t8.5 13t7 14t5 14q2 8 3.5 15.5t1.5 15.5q0 10 -2 19t-5 17q-4 8 -8 15.5t-10 14.5q-2 2 -4.5 4t-4.5 4q-4 4 -8.5 7
t-9.5 5q-8 3 -16.5 5t-16.5 2q-10 0 -18.5 -2t-16.5 -6t-14.5 -9t-11.5 -12t-9.5 -15.5t-6.5 -17.5t-3.5 -19t-1.5 -21v-1.5v-0.5v0v0v-1v0v0v0v-1.5v-0.5v0v0v-1.5v-0.5v0v0l-46 2v-1v0v0v1v0v1v0v0v0.5v1.5v0v0v0.5v1.5v0v1v0v0v0.5v1.5q0 15 2.5 28.5t6.5 26.5t11 24
t17 21q8 10 19 17.5t22 12.5q12 5 25 7.5t28 2.5h6t7 -1q3 0 6 -0.5t6 -0.5q6 -1 12 -3t11 -4t10.5 -5t10.5 -6q5 -4 10 -8.5t9 -9.5q5 -5 8.5 -10.5t7.5 -10.5q2 -3 3.5 -6t3.5 -5q1 -3 2.5 -6t2.5 -6q2 -3 3 -6l2 -6q1 -4 1.5 -7t1.5 -6q2 -6 2.5 -12.5t0.5 -13.5
q0 -12 -1 -23t-4 -21q-2 -10 -6 -18.5t-9 -16.5t-10.5 -15.5t-11.5 -14.5q-2 -2 -4 -4.5t-4 -5.5q-4 -4 -7.5 -8.5t-8.5 -9.5l-1.5 -1.5t-0.5 -1.5l-0.5 -0.5l-0.5 -0.5l-2 -2l-2 -2t-1 -1.5v-0.5h-0.5h-0.5v-1v0l-1.5 -1.5l-0.5 -0.5h-0.5h-0.5l-1 -1v0l-119 -123h196v-41
h-259v0v0v0zM150 296v402h-69v41h115v-443h-46v0v0v0z" />
    <glyph glyph-name="onequarter" unicode="&#xbc;" 
 />
    <glyph glyph-name="threequarters" unicode="&#xbe;" 
 />
    <glyph glyph-name="franc" unicode="&#x20a3;" 
 />
    <glyph glyph-name="Gbreve" unicode="&#x11e;" 
 />
    <glyph glyph-name="gbreve" unicode="&#x11f;" 
 />
    <glyph glyph-name="Idot" unicode="&#x130;" 
 />
    <glyph glyph-name="Scedilla" unicode="&#x15e;" 
 />
    <glyph glyph-name="scedilla" unicode="&#x15f;" 
 />
    <glyph glyph-name="Cacute" unicode="&#x106;" 
 />
    <glyph glyph-name="cacute" unicode="&#x107;" 
 />
    <glyph glyph-name="ccaron" unicode="&#x10d;" 
 />
    <glyph glyph-name="Dcaron" unicode="&#x10e;" 
 />
    <glyph glyph-name="dslash" unicode="&#x111;" 
 />
    <glyph glyph-name="arrowright" unicode="&#x2192;" horiz-adv-x="425" 
 />
    <glyph glyph-name="house" unicode="&#x2302;" 
 />
    <glyph glyph-name="endash" unicode="&#x2013;" horiz-adv-x="425" 
d="M0 334h425v-67h-425v67v0v0v0z" />
    <glyph glyph-name="sfthyphen" unicode="&#xad;" horiz-adv-x="425" 
 />
    <glyph glyph-name="filledbox" unicode="&#x25a0;" horiz-adv-x="425" 
 />
    <glyph glyph-name="bullet" unicode="&#x2022;" horiz-adv-x="515" 
d="M414 300q0 -20 -3 -38t-9 -35q-6 -16 -14.5 -30.5t-19.5 -28.5q-12 -13 -24.5 -23.5t-26.5 -17.5t-29.5 -10t-31.5 -3t-31 3t-29 10t-26.5 17.5t-23.5 23.5q-12 14 -20.5 28.5t-14.5 30.5q-6 17 -8.5 34.5t-2.5 36.5t2.5 37t8.5 34q6 17 14.5 32t20.5 28q11 14 23.5 24
t26.5 17t29 10.5t31 3.5t31.5 -3.5t29.5 -10.5t26.5 -17t24.5 -24q11 -13 19.5 -28t14.5 -32q6 -16 9 -34t3 -37v2v0v0z" />
    <glyph glyph-name="overstore" unicode="&#xaf;" 
 />
    <glyph glyph-name="degree" unicode="&#xb0;" 
 />
    <glyph glyph-name="middot" unicode="&#xb7;" 
 />
    <glyph glyph-name="multiply" unicode="&#xd7;" 
 />
    <glyph glyph-name="underscoredbl" unicode="&#x2017;" 
 />
    <glyph glyph-name="exclamdbl" unicode="&#x203c;" 
 />
    <glyph glyph-name="nsuperior" unicode="&#x207f;" 
 />
    <glyph glyph-name="peseta" unicode="&#x20a7;" 
 />
    <glyph glyph-name="Gamma" unicode="&#x393;" 
 />
    <glyph glyph-name="Theta" unicode="&#x398;" 
 />
    <glyph glyph-name="Phi" unicode="&#x3a6;" 
 />
    <glyph glyph-name="alpha" unicode="&#x3b1;" 
 />
    <glyph glyph-name="delta" unicode="&#x3b4;" 
 />
    <glyph glyph-name="epsilon" unicode="&#x3b5;" 
 />
    <glyph glyph-name="sigma" unicode="&#x3c3;" 
 />
    <glyph glyph-name="tau" unicode="&#x3c4;" 
 />
    <glyph glyph-name="phi" unicode="&#x3c6;" 
 />
    <glyph glyph-name="arrowleft" unicode="&#x2190;" 
 />
    <glyph glyph-name="arrowup" unicode="&#x2191;" 
 />
    <glyph glyph-name="arrowdown" unicode="&#x2193;" 
 />
    <glyph glyph-name="arrowboth" unicode="&#x2194;" 
 />
    <glyph glyph-name="arrowupdn" unicode="&#x2195;" 
 />
    <glyph glyph-name="arrowupdnbase" unicode="&#x21a8;" 
 />
    <glyph glyph-name="orthogonal" unicode="&#x221f;" 
 />
    <glyph glyph-name="intersection" unicode="&#x2229;" 
 />
    <glyph glyph-name="equivalence" unicode="&#x2261;" 
 />
    <glyph glyph-name="revlogicalnot" unicode="&#x2310;" 
 />
    <glyph glyph-name="integraltp" unicode="&#x2320;" 
 />
    <glyph glyph-name="integralbt" unicode="&#x2321;" 
 />
    <glyph glyph-name="filledrect" unicode="&#x25ac;" 
 />
    <glyph glyph-name="circle" unicode="&#x25cb;" 
 />
    <glyph glyph-name="triagup" unicode="&#x25b2;" 
 />
    <glyph glyph-name="triagrt" unicode="&#x25ba;" 
 />
    <glyph glyph-name="triagdn" unicode="&#x25bc;" 
 />
    <glyph glyph-name="triaglf" unicode="&#x25c4;" 
 />
    <glyph glyph-name="invbullet" unicode="&#x25d8;" 
 />
    <glyph glyph-name="invcircle" unicode="&#x25d9;" 
 />
    <glyph glyph-name="Rcaron" unicode="&#x158;" 
 />
    <glyph glyph-name="upblock" unicode="&#x2580;" 
 />
    <glyph glyph-name="dnblock" unicode="&#x2584;" 
 />
    <glyph glyph-name="block" unicode="&#x2588;" 
 />
    <glyph glyph-name="lfblock" unicode="&#x258c;" 
 />
    <glyph glyph-name="rtblock" unicode="&#x2590;" 
 />
    <glyph glyph-name="ltshade" unicode="&#x2591;" 
 />
    <glyph glyph-name="shade" unicode="&#x2592;" 
 />
    <glyph glyph-name="dkshade" unicode="&#x2593;" 
 />
    <glyph glyph-name="smileface" unicode="&#x263a;" 
 />
    <glyph glyph-name="invsmileface" unicode="&#x263b;" 
 />
    <glyph glyph-name="sun" unicode="&#x263c;" 
 />
    <glyph glyph-name="female" unicode="&#x2640;" 
 />
    <glyph glyph-name="male" unicode="&#x2642;" 
 />
    <glyph glyph-name="spade" unicode="&#x2660;" 
 />
    <glyph glyph-name="club" unicode="&#x2663;" 
 />
    <glyph glyph-name="heart" unicode="&#x2665;" 
 />
    <glyph glyph-name="diamond" unicode="&#x2666;" 
 />
    <glyph glyph-name="musicalnote" unicode="&#x266a;" 
 />
    <glyph glyph-name="musicalnotedbl" unicode="&#x266b;" 
 />
    <glyph glyph-name="Abreve" unicode="&#x102;" 
 />
    <glyph glyph-name="abreve" unicode="&#x103;" 
 />
    <glyph glyph-name="Aogonek" unicode="&#x104;" 
 />
    <glyph glyph-name="aogonek" unicode="&#x105;" 
 />
    <glyph glyph-name="Ccaron" unicode="&#x10c;" 
 />
    <glyph glyph-name="dcaron" unicode="&#x10f;" 
 />
    <glyph glyph-name="Dslash" unicode="&#x110;" 
 />
    <glyph glyph-name="Eogonek" unicode="&#x118;" 
 />
    <glyph glyph-name="eogonek" unicode="&#x119;" 
 />
    <glyph glyph-name="Ecaron" unicode="&#x11a;" 
 />
    <glyph glyph-name="ecaron" unicode="&#x11b;" 
 />
    <glyph glyph-name="Lacute" unicode="&#x139;" 
 />
    <glyph glyph-name="lacute" unicode="&#x13a;" 
 />
    <glyph glyph-name="Lcaron" unicode="&#x13d;" 
 />
    <glyph glyph-name="lcaron" unicode="&#x13e;" 
 />
    <glyph glyph-name="Nacute" unicode="&#x143;" 
 />
    <glyph glyph-name="nacute" unicode="&#x144;" 
 />
    <glyph glyph-name="Ncaron" unicode="&#x147;" 
 />
    <glyph glyph-name="ncaron" unicode="&#x148;" 
 />
    <glyph glyph-name="Odblacute" unicode="&#x150;" 
 />
    <glyph glyph-name="odblacute" unicode="&#x151;" 
 />
    <glyph glyph-name="Racute" unicode="&#x154;" 
 />
    <glyph glyph-name="racute" unicode="&#x155;" 
 />
    <glyph glyph-name="rcaron" unicode="&#x159;" 
 />
    <glyph glyph-name="Sacute" unicode="&#x15a;" 
 />
    <glyph glyph-name="sacute" unicode="&#x15b;" 
 />
    <glyph glyph-name="Tcedilla" unicode="&#x162;" 
 />
    <glyph glyph-name="tcedilla" unicode="&#x163;" 
 />
    <glyph glyph-name="Tcaron" unicode="&#x164;" 
 />
    <glyph glyph-name="tcaron" unicode="&#x165;" 
 />
    <glyph glyph-name="Uring" unicode="&#x16e;" 
 />
    <glyph glyph-name="uring" unicode="&#x16f;" 
 />
    <glyph glyph-name="Udblacute" unicode="&#x171;" 
 />
    <glyph glyph-name="udblacute" unicode="&#x170;" 
 />
    <glyph glyph-name="Zacute" unicode="&#x179;" 
 />
    <glyph glyph-name="zacute" unicode="&#x17a;" 
 />
    <glyph glyph-name="Zdot" unicode="&#x17b;" 
 />
    <glyph glyph-name="zdot" unicode="&#x17c;" 
 />
    <glyph glyph-name="Ldot" unicode="&#x13f;" 
 />
    <glyph glyph-name="ldot" unicode="&#x140;" 
 />
    <glyph glyph-name="2500" unicode="&#x2500;" 
 />
    <glyph glyph-name="2502" unicode="&#x2502;" 
 />
    <glyph glyph-name="250c" unicode="&#x250c;" 
 />
    <glyph glyph-name="2510" unicode="&#x2510;" 
 />
    <glyph glyph-name="2514" unicode="&#x2514;" 
 />
    <glyph glyph-name="2518" unicode="&#x2518;" 
 />
    <glyph glyph-name="251c" unicode="&#x251c;" 
 />
    <glyph glyph-name="2524" unicode="&#x2524;" 
 />
    <glyph glyph-name="252c" unicode="&#x252c;" 
 />
    <glyph glyph-name="2534" unicode="&#x2534;" 
 />
    <glyph glyph-name="253c" unicode="&#x253c;" 
 />
    <glyph glyph-name="2550" unicode="&#x2550;" 
 />
    <glyph glyph-name="2551" unicode="&#x2551;" 
 />
    <glyph glyph-name="2552" unicode="&#x2552;" 
 />
    <glyph glyph-name="2553" unicode="&#x2553;" 
 />
    <glyph glyph-name="2554" unicode="&#x2554;" 
 />
    <glyph glyph-name="2555" unicode="&#x2555;" 
 />
    <glyph glyph-name="2556" unicode="&#x2556;" 
 />
    <glyph glyph-name="2557" unicode="&#x2557;" 
 />
    <glyph glyph-name="2558" unicode="&#x2558;" 
 />
    <glyph glyph-name="2559" unicode="&#x2559;" 
 />
    <glyph glyph-name="255a" unicode="&#x255a;" 
 />
    <glyph glyph-name="255b" unicode="&#x255b;" 
 />
    <glyph glyph-name="255c" unicode="&#x255c;" 
 />
    <glyph glyph-name="255d" unicode="&#x255d;" 
 />
    <glyph glyph-name="255e" unicode="&#x255e;" 
 />
    <glyph glyph-name="255f" unicode="&#x255f;" 
 />
    <glyph glyph-name="2560" unicode="&#x2560;" 
 />
    <glyph glyph-name="2561" unicode="&#x2561;" 
 />
    <glyph glyph-name="2562" unicode="&#x2562;" 
 />
    <glyph glyph-name="2563" unicode="&#x2563;" 
 />
    <glyph glyph-name="2564" unicode="&#x2564;" 
 />
    <glyph glyph-name="2565" unicode="&#x2565;" 
 />
    <glyph glyph-name="2566" unicode="&#x2566;" 
 />
    <glyph glyph-name="2567" unicode="&#x2567;" 
 />
    <glyph glyph-name="2568" unicode="&#x2568;" 
 />
    <glyph glyph-name="2569" unicode="&#x2569;" 
 />
    <glyph glyph-name="256a" unicode="&#x256a;" 
 />
    <glyph glyph-name="256b" unicode="&#x256b;" 
 />
    <glyph glyph-name="256c" unicode="&#x256c;" 
 />
    </font>
</defs>
</svg>
