<?xml version="1.0" standalone="no"?>
<!DOCTYPE svg PUBLIC "-//W3C//DTD SVG 1.1//EN" "http://www.w3.org/Graphics/SVG/1.1/DTD/svg11.dtd" >
<svg>
<metadata>
Created by FontForge 20090914 at Thu Nov 17 06:17:17 2016
 By www-data
</metadata>
<defs>
<font id="AvantGarde-BookTh" horiz-adv-x="235" >
  <font-face 
    font-family="AvantGarde-Book Th"
    font-weight="400"
    font-stretch="normal"
    units-per-em="1000"
    panose-1="0 0 6 0 0 0 0 2 0 0"
    ascent="800"
    descent="-200"
    x-height="547"
    cap-height="739"
    bbox="-97 -222.001 977.999 989"
    underline-thickness="50"
    underline-position="-55"
    unicode-range="U+0020-U+F002"
  />
<missing-glyph 
 />
    <glyph glyph-name=".notdef" 
 />
    <glyph glyph-name="space" unicode=" " 
 />
    <glyph glyph-name="space" unicode="&#xa0;" 
 />
    <glyph glyph-name="exclam" unicode="!" horiz-adv-x="250" 
d="M94 0v126h63v-126h-63v0v0v0zM94 193v546h63v-546h-63v0v0v0z" />
    <glyph glyph-name="quotedbl" unicode="&#x22;" horiz-adv-x="262" 
d="M62 513v226h45v-226h-45v0v0v0zM157 513v226h44v-226h-44v0v0v0z" />
    <glyph glyph-name="numbersign" unicode="#" horiz-adv-x="470" 
d="M68 0l62 250h-126l13 58h128l30 123h-126l13 58h129l62 250h36l-62 -250h76l63 250h35l-62 -250h127l-13 -58h-129l-30 -123h127l-14 -58h-129l-62 -250h-36l63 250h-77l-63 -250h-35v0v0v0zM181 308h77l30 123h-77l-30 -123v0v0v0z" />
    <glyph glyph-name="dollar" unicode="$" horiz-adv-x="470" 
d="M208 -54l-0.00390625 82.998c-10 1.33301 -19.5 3.66602 -28.5 6.99902s-17.833 7.33301 -26.5 12c-8.66699 5.33301 -16.667 11.5 -24 18.5s-14.666 14.833 -21.999 23.5s-13.833 17.667 -19.5 27s-10.167 19.333 -13.5 30c-3.33301 10 -6 20.5 -8 31.5s-3 22.5 -3 34.5
v14h60v-2v-1v-1.5v-0.5v-1.5v-0.5v0v0v-1v0c0 -8.66699 0.666992 -17.334 2 -26.001s3.33301 -16.667 6 -24c2.66699 -8 6.16699 -15.333 10.5 -22s9.16602 -13 14.499 -19c5.33301 -6.66699 11 -12.167 17 -16.5s12.333 -8.16602 19 -11.499
c6.66699 -2.66699 13.667 -4.83398 21 -6.50098s15 -2.5 23 -2.5c7.33301 0 14.333 0.833008 21 2.5s13.334 3.83398 20.001 6.50098c6.66699 3.33301 13 7.16602 19 11.499s11.667 9.83301 17 16.5c5.33301 6 10.166 12.5 14.499 19.5s7.83301 14.167 10.5 21.5
s4.66699 15.166 6 23.499s2 16.833 2 25.5c0 11.333 -0.666992 21.833 -2 31.5s-3.33301 18.5 -6 26.5s-6.16699 15.333 -10.5 22s-9.16602 12.334 -14.499 17.001s-11 9 -17 13s-12.333 8 -19 12s-13.834 7.66699 -21.501 11s-15.5 6.33301 -23.5 9
c-5.33301 1.33301 -10.333 2.83301 -15 4.5s-9.33398 3.5 -14.001 5.5l-14 6c-4.66699 2 -9.33398 4.33301 -14.001 7c-3.33301 1.33301 -6.5 2.83301 -9.5 4.5s-5.83301 3.5 -8.5 5.5c-1.33301 1.33301 -2.83301 2.5 -4.5 3.5s-3.16699 1.83301 -4.5 2.5
c-1.33301 1.33301 -2.66602 2.5 -3.99902 3.5s-2.66602 2.16699 -3.99902 3.5c-2.66699 2 -5.33398 4.5 -8.00098 7.5s-5.33398 5.83301 -8.00098 8.5c-3.33301 4 -6.5 8.33301 -9.5 13s-5.83301 9.33398 -8.5 14.001l-7.5 15.5c-2.33301 5 -4.16602 10.167 -5.49902 15.5
l-4 16.5l-4 16.5c-0.666992 5.33301 -1.16699 11 -1.5 17s-0.5 12 -0.5 18c0 11.333 0.666992 22.166 2 32.499s3.33301 20.166 6 29.499s6.16699 18.5 10.5 27.5s9.5 17.5 15.5 25.5c5.33301 8 11.333 15.333 18 22s14 12.334 22 17.001
c7.33301 5.33301 15.333 9.66602 24 12.999s17.667 6 27 8v85h55v-83c10 -2.66699 19.333 -5.66699 28 -9s17.334 -7.66602 26.001 -12.999c8.66699 -4.66699 16.5 -10.5 23.5 -17.5s13.833 -14.5 20.5 -22.5c6.66699 -8.66699 12.334 -17.667 17.001 -27
s8.66699 -19 12 -29s5.83301 -20.5 7.5 -31.5s2.83398 -22.5 3.50098 -34.5l-60 2c-0.666992 8 -1.5 15.833 -2.5 23.5s-2.83301 14.834 -5.5 21.501c-2.66699 7.33301 -5.66699 14 -9 20s-7.66602 11.667 -12.999 17c-4.66699 5.33301 -9.66699 10.166 -15 14.499
s-11 7.83301 -17 10.5c-6.66699 3.33301 -13.334 5.66602 -20.001 6.99902s-13.667 2 -21 2h-4h-3c-1.33301 -0.666992 -2.5 -1 -3.5 -1h-3.5c-1.33301 0 -2.5 -0.166992 -3.5 -0.5s-2.16699 -0.5 -3.5 -0.5c-1.33301 -0.666992 -2.5 -1.16699 -3.5 -1.5
s-2.16699 -0.5 -3.5 -0.5c-2 -0.666992 -4 -1.5 -6 -2.5s-4 -2.16699 -6 -3.5c-2.66699 -0.666992 -5 -1.83398 -7 -3.50098s-4 -3.16699 -6 -4.5l-1.5 -1.5c-0.333008 -0.333008 -0.833008 -0.5 -1.5 -0.5h-0.5h-0.5c0 -0.666992 -0.166992 -1 -0.5 -1h-0.5l-1.5 -1.5
l-0.5 -0.5l-1.5 -1.5l-0.5 -0.5c-2.66699 -3.33301 -5.5 -6.66602 -8.5 -9.99902s-5.5 -6.66602 -7.5 -9.99902s-3.83301 -6.83301 -5.5 -10.5s-3.16699 -7.16699 -4.5 -10.5s-2.33301 -7 -3 -11l-2 -12c-0.666992 -4.66699 -1.16699 -9.16699 -1.5 -13.5
s-0.5 -8.83301 -0.5 -13.5c0 -10 0.5 -19.167 1.5 -27.5s2.83301 -16.166 5.5 -23.499c2.66699 -6.66699 6 -12.667 10 -18s8.33301 -9.66602 13 -12.999c5.33301 -4 10.666 -7.5 15.999 -10.5l17 -9.5l19 -8.5c6.66699 -3 13.334 -5.5 20.001 -7.5l3 -1.5
c0.666992 -0.333008 1.33398 -0.5 2.00098 -0.5l3 -1.5c0.666992 -0.333008 1.33398 -0.5 2.00098 -0.5l1.5 -1.5c0.333008 -0.333008 0.833008 -0.5 1.5 -0.5h1.5h1.5c0 -0.666992 0.333008 -1.16699 1 -1.5s1.33398 -0.5 2.00098 -0.5h1.5h0.5
c4 -1.33301 8 -2.83301 12 -4.5s8 -3.5 12 -5.5c2 -0.666992 4.16699 -1.5 6.5 -2.5s4.5 -2.16699 6.5 -3.5c2 -0.666992 4 -1.5 6 -2.5s4 -2.16699 6 -3.5l6 -4l6 -4c1.33301 -1.33301 3 -2.66602 5 -3.99902l6 -4c2 -1.33301 3.83301 -2.83301 5.5 -4.5l4.5 -4.5l4.5 -4.5
l5.5 -5.5c4 -4.66699 7.83301 -9.66699 11.5 -15s6.83398 -10.666 9.50098 -15.999c3.33301 -5.33301 6.33301 -10.833 9 -16.5s5 -11.5 7 -17.5c0.666992 -1.33301 1.16699 -2.83301 1.5 -4.5s0.5 -3.5 0.5 -5.5c1.33301 -4.66699 2.5 -9.33398 3.5 -14.001
s1.83301 -9.33398 2.5 -14.001c1.33301 -6 2.33301 -12.167 3 -18.5s1 -12.833 1 -19.5c0 -12 -1 -23.5 -3 -34.5s-4.66699 -22.167 -8 -33.5c-3.33301 -10.667 -7.5 -21.167 -12.5 -31.5s-11.167 -20.166 -18.5 -29.499c-6.66699 -10 -13.834 -18.667 -21.501 -26
s-15.834 -13.666 -24.501 -18.999s-17.667 -9.5 -27 -12.5s-19 -4.83301 -29 -5.5v-81h-55v0v0v0z" />
    <glyph glyph-name="percent" unicode="%" horiz-adv-x="658" 
d="M492 338c10 -0.666992 19.832 -2.33496 29.499 -5.00195s18.834 -6.33398 27.501 -11.001s17 -10.167 25 -16.5s15.333 -14.166 22 -23.499c7.33301 -8.66699 13.666 -18 18.999 -28s9.66602 -20 12.999 -30c3.33301 -10.667 6 -21.5 8 -32.5s3 -22.5 3 -34.5
s-1 -23.5 -3 -34.5s-4.66699 -21.5 -8 -31.5c-4 -10 -8.66699 -19.667 -14 -29s-11.666 -18 -18.999 -26c-7.33301 -8.66699 -15 -16 -23 -22s-16.333 -10.667 -25 -14c-8.66699 -4 -17.834 -7 -27.501 -9s-19.167 -3 -28.5 -3c-10.667 0 -20.667 1 -30 3s-18.333 5 -27 9
c-8.66699 3.33301 -17 8 -25 14s-15.667 13.333 -23 22s-13.833 17.667 -19.5 27s-10.167 19 -13.5 29c-4 10 -6.83301 20.5 -8.5 31.5s-2.5 22.5 -2.5 34.5s0.833008 23.667 2.5 35s4.5 22.333 8.5 33c3.33301 10.667 7.83301 20.834 13.5 30.501
s11.834 18.834 18.501 27.501c7.33301 8.66699 15.166 16.167 23.499 22.5s16.833 11.833 25.5 16.5c8.66699 4 17.834 7.16699 27.501 9.5s19.834 3.5 30.501 3.5v2v0v0zM491.999 266.999c-6.66699 -0.666992 -12.998 -1.83008 -18.998 -3.49707
s-11.667 -3.83398 -17 -6.50098s-10.333 -5.83398 -15 -9.50098s-9.33398 -8.16699 -14.001 -13.5c-4 -5.33301 -7.66699 -11 -11 -17s-6 -12 -8 -18c-2 -6.66699 -3.5 -13.5 -4.5 -20.5s-1.5 -14.167 -1.5 -21.5s0.5 -14.333 1.5 -21s2.5 -13 4.5 -19
c2.66699 -6 5.66699 -11.667 9 -17s7.33301 -10.333 12 -15c4 -4.66699 8.5 -9 13.5 -13s9.83301 -7 14.5 -9c5.33301 -2.66699 10.833 -4.5 16.5 -5.5s11.5 -1.5 17.5 -1.5s12 0.5 18 1.5s11.333 2.83301 16 5.5c5.33301 2.66699 10.166 6 14.499 10
s8.83301 8.66699 13.5 14c4 5.33301 7.5 10.666 10.5 15.999s5.83301 11 8.5 17c2 6 3.5 12.5 4.5 19.5s1.5 14.167 1.5 21.5s-0.5 14.166 -1.5 20.499s-2.5 12.5 -4.5 18.5c-2.66699 6 -5.5 11.833 -8.5 17.5s-6.5 11.167 -10.5 16.5
c-4.66699 5.33301 -9.16699 9.83301 -13.5 13.5s-9.16602 6.83398 -14.499 9.50098c-4.66699 2.66699 -9.83398 4.66699 -15.501 6s-11.5 2 -17.5 2v2v0v0zM153.001 0.00292969l283 739h61l-282 -739h-62v0v0v0zM160.001 751.003
c10.667 -0.666992 20.666 -2.33301 29.999 -5s18.333 -6 27 -10c8.66699 -4.66699 17 -10.167 25 -16.5s15.667 -13.833 23 -22.5c6.66699 -8.66699 12.667 -17.667 18 -27s9.33301 -19 12 -29c3.33301 -10.667 6 -21.5 8 -32.5s3 -22.5 3 -34.5s-1 -23.667 -3 -35
s-4.66699 -22 -8 -32s-7.83301 -19.667 -13.5 -29s-12.167 -18.333 -19.5 -27c-6.66699 -8.66699 -14 -16.334 -22 -23.001s-16.333 -12 -25 -16c-8.66699 -4.66699 -17.667 -8 -27 -10s-19 -3 -29 -3s-19.833 1 -29.5 3s-18.834 5.33301 -27.501 10
c-8.66699 4 -16.834 9.33301 -24.501 16s-15.167 14.334 -22.5 23.001c-8 8.66699 -14.667 17.667 -20 27s-9.66602 19.333 -12.999 30c-4 10.667 -6.83301 21.667 -8.5 33s-2.5 23 -2.5 35s0.833008 23.667 2.5 35s4.16699 22 7.5 32s7.83301 19.667 13.5 29
s11.834 18.333 18.501 27c7.33301 8 15.166 15.167 23.499 21.5s16.833 11.5 25.5 15.5s17.834 7.16699 27.501 9.5s19.834 3.5 30.501 3.5v2v0v0zM160 680.004c-6.66699 -0.666992 -13.0029 -1.83301 -19.0029 -3.5s-11.667 -3.83398 -17 -6.50098s-10.333 -5.66699 -15 -9
s-9 -7.33301 -13 -12c-4.66699 -4.66699 -8.66699 -9.83398 -12 -15.501s-5.66602 -11.5 -6.99902 -17.5c-2 -6 -3.5 -12.5 -4.5 -19.5s-1.5 -14.167 -1.5 -21.5s0.5 -14.5 1.5 -21.5s2.5 -13.5 4.5 -19.5s4.66699 -11.667 8 -17s7 -10.666 11 -15.999
c4.66699 -5.33301 9.33398 -10 14.001 -14s9.33398 -7.33301 14.001 -10c2.66699 -1.33301 5.5 -2.5 8.5 -3.5s5.83301 -1.5 8.5 -1.5c2.66699 -0.666992 5.5 -1.16699 8.5 -1.5s5.83301 -0.5 8.5 -0.5c6 0 12 0.666992 18 2s11.333 3.33301 16 6
c5.33301 2.66699 10.333 6 15 10s9.33398 8.66699 14.001 14c4 5.33301 7.5 11 10.5 17s5.5 12.333 7.5 19c2 6 3.66699 12.5 5 19.5s2 14.167 2 21.5c0 6.66699 -0.666992 13 -2 19s-3 12 -5 18s-4.5 11.833 -7.5 17.5s-6.5 10.834 -10.5 15.501
c-4.66699 4.66699 -9.33398 8.66699 -14.001 12s-9.66699 6.33301 -15 9c-4.66699 2.66699 -9.66699 4.66699 -15 6s-11 2 -17 2v2v0v0z" />
    <glyph glyph-name="ampersand" unicode="&#x26;" horiz-adv-x="643" 
d="M511 480l71 0.00878906l-117 -261l159 -182l-45 -50l-143 165c-2.66699 -6 -5.5 -12 -8.5 -18l-8.5 -17c-2.66699 -6 -5.5 -11.5 -8.5 -16.5s-5.83301 -10.167 -8.5 -15.5c-6.66699 -10 -13.5 -19.5 -20.5 -28.5s-14.167 -17.167 -21.5 -24.5
c-7.33301 -8 -15.5 -14.833 -24.5 -20.5s-18.5 -9.83398 -28.5 -12.501c-9.33301 -3.33301 -19.5 -6 -30.5 -8s-22.167 -3 -33.5 -3c-14 0 -27.333 1.33301 -40 4s-24.667 6.33398 -36 11.001c-11.333 5.33301 -22.166 12.166 -32.499 20.499s-20.166 18.166 -29.499 29.499
c-10 11.333 -18.5 23 -25.5 35s-12.833 24.667 -17.5 38s-8.16699 27.333 -10.5 42s-3.5 30 -3.5 46c0 13.333 0.833008 26.166 2.5 38.499s4.5 23.833 8.5 34.5c3.33301 11.333 7.83301 22.166 13.5 32.499s11.834 19.833 18.501 28.5c7.33301 9.33301 14.833 18 22.5 26
s15.5 15.333 23.5 22c8 7.33301 16.333 14.166 25 20.499s17.667 12.166 27 17.499c-0.666992 0 -1.16699 0.166992 -1.5 0.5s-0.5 0.833008 -0.5 1.5l-0.5 0.5l-1.5 1.5l-2 2l-2 2c-0.666992 0.666992 -1.16699 1.33398 -1.5 2.00098s-0.833008 1.33398 -1.5 2.00098
l-1.5 1.5c-0.333008 0.333008 -0.5 0.833008 -0.5 1.5c-0.666992 0 -1 0.166992 -1 0.5v1.5c-4 4.66699 -7.83301 9.5 -11.5 14.5l-10.5 14.5c-2.66699 5.33301 -5.5 10.666 -8.5 15.999s-5.5 10.666 -7.5 15.999c-2.66699 5.33301 -4.83398 10.833 -6.50098 16.5
s-3.16699 11.834 -4.5 18.501c-0.666992 6 -1.33398 12.5 -2.00098 19.5s-1 14.167 -1 21.5c0 11.333 0.833008 22.166 2.5 32.499s4.5 20.166 8.5 29.499c3.33301 9.33301 8 18.333 14 27s13 17 21 25c7.33301 7.33301 14.833 13.833 22.5 19.5s15.834 10.5 24.501 14.5
s17.5 7 26.5 9s18.167 3.33301 27.5 4c10 -0.666992 20 -2.16699 30 -4.5s19.333 -5.5 28 -9.5s17.167 -9.16699 25.5 -15.5s16.5 -13.5 24.5 -21.5c7.33301 -8.66699 13.833 -17.667 19.5 -27s10.5 -19 14.5 -29c3.33301 -10 6.16602 -20.667 8.49902 -32
s3.83301 -23.333 4.5 -36c-0.666992 -10.667 -1.83398 -20.834 -3.50098 -30.501s-4.16699 -19.167 -7.5 -28.5c-2.66699 -8.66699 -6.5 -16.834 -11.5 -24.501s-10.833 -14.834 -17.5 -21.501c-6 -6.66699 -12.333 -13 -19 -19s-13.667 -11.667 -21 -17
c-6.66699 -4.66699 -13.667 -9.16699 -21 -13.5s-15 -8.16602 -23 -11.499l119 -136l91 208v0v0v0zM238 379.009l-27.9971 -16.999c-3.33301 -2.66699 -6.66602 -5.16699 -9.99902 -7.5l-9 -6.5l-9.5 -7.5l-9.5 -7.5c-6 -4.66699 -11.667 -9.83398 -17 -15.501l-15 -16.5
c-4.66699 -6 -8.83398 -12.5 -12.501 -19.5s-6.83398 -14.167 -9.50098 -21.5c-2.66699 -8 -4.5 -16.333 -5.5 -25s-1.5 -17.667 -1.5 -27c0 -10 0.666992 -19.667 2 -29s3.66602 -18.666 6.99902 -27.999c3.33301 -8.66699 7.33301 -17.334 12 -26.001s10 -16.667 16 -24
c6 -8 12.5 -14.833 19.5 -20.5s14.167 -10.5 21.5 -14.5s15.166 -6.83301 23.499 -8.5s16.833 -2.16699 25.5 -1.5c9.33301 -0.666992 18.5 -0.166992 27.5 1.5s17.5 4.5 25.5 8.5c7.33301 4 14.5 8.83301 21.5 14.5s13.167 12.5 18.5 20.5l16 23
c5.33301 8 10.333 16.333 15 25l9.5 17.5c3 5.66699 5.83301 11.5 8.5 17.5c1.33301 3.33301 2.83301 6.5 4.5 9.5s3.16699 6.16699 4.5 9.5l-151 176v0v0v0zM362.003 586.01c0 5.33301 -0.678711 10.833 -2.01172 16.5s-3 10.834 -5 15.501c-2 5.33301 -4.5 10.333 -7.5 15
s-6.83301 9.33398 -11.5 14.001c-2 2 -4.16699 4 -6.5 6s-4.5 4 -6.5 6s-4.16699 3.66699 -6.5 5s-4.5 2.66602 -6.5 3.99902c-4.66699 2.66699 -9.33398 4.66699 -14.001 6s-9.33398 2.33301 -14.001 3h-1.5h-0.5v0v1h-1.5h-0.5v0v0h-1v0v0v0h-1v0v0v0h-1.5h-0.5v0v0h-1v0
c-6 0 -11.667 -0.666992 -17 -2s-10.666 -3 -15.999 -5c-4.66699 -2 -9.33398 -4.66699 -14.001 -8s-9.33398 -7 -14.001 -11c-4.66699 -4.66699 -8.66699 -9.5 -12 -14.5s-6 -10.5 -8 -16.5c-2.66699 -6 -4.33398 -12 -5.00098 -18s-1 -12.667 -1 -20
c0 -4.66699 0.333008 -9.33398 1 -14.001l2 -14c1.33301 -4.66699 2.83301 -9 4.5 -13s3.83398 -8 6.50098 -12l8 -12c2.66699 -4 5.33398 -7.66699 8.00098 -11c2.66699 -4 5.5 -7.66699 8.5 -11s5.83301 -6.66602 8.5 -9.99902c1.33301 -1.33301 2.33301 -2.5 3 -3.5
s1.33398 -2.16699 2.00098 -3.5c1.33301 -0.666992 2.33301 -1.5 3 -2.5s1.33398 -2.16699 2.00098 -3.5l1.5 -1.5l1.5 -1.5l1.5 -1.5c0.333008 -0.333008 0.833008 -0.5 1.5 -0.5c0 -0.666992 0.333008 -1.33398 1 -2.00098s1.33398 -1 2.00098 -1l1.5 -1.5l1.5 -1.5
c0.666992 0.666992 1.33398 1.16699 2.00098 1.5s1.33398 0.5 2.00098 0.5l1 0.5l1 0.5c0.666992 0 1.33398 0.166992 2.00098 0.5s1.33398 0.833008 2.00098 1.5l1 0.5c0.666992 0.333008 1.33398 0.5 2.00098 0.5s1.33398 0.166992 2.00098 0.5
s1.33398 0.833008 2.00098 1.5c0.666992 0 1.33398 0.166992 2.00098 0.5s1.33398 0.833008 2.00098 1.5c0.666992 0 1.33398 0.166992 2.00098 0.5s1.33398 0.833008 2.00098 1.5l1 0.5c0.666992 0.333008 1.33398 0.833008 2.00098 1.5
c5.33301 2.66699 10.166 5.5 14.499 8.5l13.5 9.5l12.5 10.5c4.33301 3.66699 8.83301 7.83398 13.5 12.501c4 4.66699 7.5 9.5 10.5 14.5s5.5 10.167 7.5 15.5s3.66699 11.166 5 17.499s2 12.833 2 19.5v2v0v0z" />
    <glyph glyph-name="quotesingle" unicode="'" horiz-adv-x="168" 
d="M62 513v226h43v-226h-43v0v0v0z" />
    <glyph glyph-name="parenleft" unicode="(" horiz-adv-x="313" 
d="M284 739l0.000976562 -65c-12 -8.66699 -23.5 -18.167 -34.5 -28.5s-21.833 -21.5 -32.5 -33.5c-10 -12 -19.333 -24.5 -28 -37.5s-17 -27.167 -25 -42.5c-7.33301 -15.333 -14 -30.833 -20 -46.5s-11 -31.5 -15 -47.5c-4.66699 -16 -8.33398 -32 -11.001 -48
s-4.33398 -32.333 -5.00098 -49c-0.666992 -2 -1.16699 -3.83301 -1.5 -5.5s-0.5 -3.16699 -0.5 -4.5v-5.5v-4.5v-1.5v-0.5v-1.5v-1.5v-2v-2v-2.5v-3.5v-2v-2v-4v-4v-5v-4v-8c0 -2.66699 0.333008 -5.33398 1 -8.00098v-4.5c0 -1.66699 0.333008 -3.16699 1 -4.5v-4.5v-4.5
c0 -2.66699 0.166992 -5.33398 0.5 -8.00098s0.833008 -5.33398 1.5 -8.00098c2 -14.667 4.83301 -29.5 8.5 -44.5s7.83398 -29.5 12.501 -43.5c4.66699 -14.667 10.167 -29 16.5 -43s13.166 -27.667 20.499 -41c7.33301 -14 15.166 -27 23.499 -39
s17.166 -22.667 26.499 -32c9.33301 -10 19.166 -19.5 29.499 -28.5s20.833 -17.167 31.5 -24.5v-66c-6.66699 2.66699 -13.167 5.5 -19.5 8.5s-12.833 6.5 -19.5 10.5c-4 2.66699 -8 5.5 -12 8.5s-8 6.16699 -12 9.5c-2 2 -4 3.83301 -6 5.5s-4 3.5 -6 5.5
c-3.33301 2.66699 -6.5 5.66699 -9.5 9s-6.16699 6.33301 -9.5 9c-2.66699 3.33301 -5.33398 6.5 -8.00098 9.5s-5.33398 6.16699 -8.00098 9.5c-1.33301 1.33301 -2.66602 2.83301 -3.99902 4.5s-2.66602 3.16699 -3.99902 4.5l-10.5 14.5l-10.5 14.5l-2 2l-2 2
c-0.666992 0 -1.16699 0.333008 -1.5 1s-0.833008 1.33398 -1.5 2.00098l-2 2c-0.666992 0.666992 -1 1.33398 -1 2.00098c-0.666992 0.666992 -1.33398 1.5 -2.00098 2.5s-1.33398 1.83301 -2.00098 2.5s-1.16699 1.33398 -1.5 2.00098s-0.833008 1.33398 -1.5 2.00098
c-0.666992 1.33301 -1.16699 2.5 -1.5 3.5s-0.833008 1.83301 -1.5 2.5l-0.5 0.5c-0.333008 0.333008 -0.5 0.833008 -0.5 1.5l-0.5 0.5c-0.333008 0.333008 -0.5 0.833008 -0.5 1.5s-0.166992 1.16699 -0.5 1.5s-0.5 0.833008 -0.5 1.5
c-0.666992 0 -1.16699 0.166992 -1.5 0.5s-0.5 0.833008 -0.5 1.5c-6 10 -11.667 20.167 -17 30.5s-10 20.833 -14 31.5c-4.66699 11.333 -8.66699 22.5 -12 33.5l-10 33.5c-3.33301 11.333 -6.16602 22.833 -8.49902 34.5s-4.5 23.5 -6.5 35.5
c-1.33301 12 -2.33301 24 -3 36s-1 24 -1 36s0.333008 24 1 36l2 36c1.33301 11.333 3.16602 22.833 5.49902 34.5s4.83301 22.834 7.5 33.501c1.33301 5.33301 2.83301 10.666 4.5 15.999s3.16699 11 4.5 17l6 16l6 16l14 31.5c4.66699 10.333 10 20.833 16 31.5
c1.33301 1.33301 2.33301 2.83301 3 4.5s1.33398 3.16699 2.00098 4.5c1.33301 1.33301 2.33301 2.83301 3 4.5s1.33398 3.16699 2.00098 4.5c1.33301 1.33301 2.33301 2.83301 3 4.5s1.33398 3.16699 2.00098 4.5l2 2c0.666992 0.666992 1.33398 1.66699 2.00098 3
c0 0.666992 0.333008 1.5 1 2.5s1.33398 1.83301 2.00098 2.5c2.66699 3.33301 5.16699 6.66602 7.5 9.99902l7.5 11l8 10l8 10c5.33301 6.66699 11 13.167 17 19.5l19 19.5c6 6 12.333 11.667 19 17s13.334 10 20.001 14s13.5 7.66699 20.5 11s13.833 6 20.5 8v2v0v0z" />
    <glyph glyph-name="parenright" unicode=")" horiz-adv-x="313" 
d="M28 -127v65.002c11.333 8 22.166 16.5 32.499 25.5s20.166 18.5 29.499 28.5c9.33301 9.33301 18 20 26 32s16 25 24 39c7.33301 13.333 14 27 20 41s11.333 28.333 16 43c5.33301 14 9.5 28.5 12.5 43.5s5.83301 29.833 8.5 44.5c0.666992 2.66699 1 5.33398 1 8.00098
v8c0 3.33301 0.166992 6.5 0.5 9.5s0.833008 5.83301 1.5 8.5v4c0 1.33301 0.333008 2.66602 1 3.99902v4v4v4c0 1.33301 0.333008 3 1 5v4v4v2v2v3.5v2.5c-0.666992 0.666992 -1 1.33398 -1 2.00098v2v1.5v1.5v0.5v1.5v2v2v3.5v2.5
c-0.666992 0.666992 -1 1.33398 -1 2.00098v2v3.5v2.5c-0.666992 16.667 -2.5 33 -5.5 49s-6.83301 32 -11.5 48s-10 31.833 -16 47.5s-12.667 31.167 -20 46.5s-15.5 29.5 -24.5 42.5s-18.167 25.5 -27.5 37.5c-10 11.333 -20.5 22 -31.5 32s-22.833 19.333 -35.5 28v67
c8.66699 -3.33301 16.834 -7 24.501 -11s15.167 -8.66699 22.5 -14c7.33301 -4.66699 14.833 -10.167 22.5 -16.5s14.834 -13.166 21.501 -20.499s13 -14.833 19 -22.5l18 -22.5c3.33301 -4 6.33301 -8 9 -12s5.33398 -7.66699 8.00098 -11l8 -12l8 -12
c0 -0.666992 0.166992 -1.33398 0.5 -2.00098s0.833008 -1.33398 1.5 -2.00098v-1.5c0 -0.333008 0.333008 -0.5 1 -0.5v-1.5v-0.5v-0.5c0 -0.333008 0.333008 -0.5 1 -0.5v-1v0c0 -0.666992 0.166992 -1 0.5 -1h1.5v-0.5c0 -0.333008 0.333008 -0.5 1 -0.5v-1v0
c0 -0.666992 0.166992 -1.16699 0.5 -1.5s0.833008 -0.5 1.5 -0.5l15.5 -31.5c5 -10.333 9.5 -20.833 13.5 -31.5l6 -16l6 -16l5.5 -17c1.66699 -5.33301 3.16699 -10.666 4.5 -15.999c2.66699 -10.667 4.83398 -21.834 6.50098 -33.501s3.16699 -23.167 4.5 -34.5
c1.33301 -12 2.5 -24 3.5 -36s1.5 -24 1.5 -36s-0.5 -24 -1.5 -36s-2.16699 -24 -3.5 -36l-6 -35.5c-2 -11.667 -4.66699 -23.167 -8 -34.5c-3.33301 -12 -6.83301 -23.5 -10.5 -34.5s-7.83398 -22.167 -12.501 -33.5c-4.66699 -10.667 -9.5 -21.167 -14.5 -31.5
s-10.5 -20.166 -16.5 -29.499v-1.5c0 -0.333008 -0.333008 -0.5 -1 -0.5c0 -0.666992 -0.166992 -1.16699 -0.5 -1.5s-0.5 -0.833008 -0.5 -1.5l-2 -2c-0.666992 -0.666992 -1 -1.33398 -1 -2.00098c-0.666992 -0.666992 -1.16699 -1.5 -1.5 -2.5
s-0.833008 -2.16699 -1.5 -3.5l-2 -2c-0.666992 -0.666992 -1 -1.33398 -1 -2.00098c-1.33301 -2 -2.66602 -3.66699 -3.99902 -5s-2.33301 -2.66602 -3 -3.99902c-0.666992 -0.666992 -1.16699 -1.33398 -1.5 -2.00098s-0.833008 -1 -1.5 -1
c-0.666992 -0.666992 -1.16699 -1.33398 -1.5 -2.00098s-0.833008 -1.33398 -1.5 -2.00098c-4.66699 -6.66699 -9.5 -13.167 -14.5 -19.5s-10.167 -12.5 -15.5 -18.5c-2.66699 -3.33301 -5.33398 -6.5 -8.00098 -9.5s-5.66699 -6.16699 -9 -9.5
c-2.66699 -2.66699 -5.33398 -5.66699 -8.00098 -9s-5.66699 -6.33301 -9 -9l-19 -15.5c-6 -5 -12 -9.5 -18 -13.5c-6.66699 -4 -13.167 -7.5 -19.5 -10.5s-12.833 -5.5 -19.5 -7.5v-1v0v0z" />
    <glyph glyph-name="asterisk" unicode="*" horiz-adv-x="361" 
d="M306 633v-51h-85l45 -88l-40 -28l-45 90l-45 -90l-40 28l45 88h-87v51h87l-45 90l40 28l45 -90l45 90l40 -28l-45 -90h85v0v0v0z" />
    <glyph glyph-name="plus" unicode="+" horiz-adv-x="515" 
d="M225 341v213h64v-213h182v-76h-182v-216h-64v216h-182v76h182v0v0v0z" />
    <glyph glyph-name="comma" unicode="," 
d="M77 -67l75 193h63l-75 -193h-63v0v0v0z" />
    <glyph glyph-name="hyphen" unicode="-" horiz-adv-x="282" 
d="M26 334h230v-67h-230v67v0v0v0z" />
    <glyph glyph-name="period" unicode="." 
d="M85 0v126h63v-126h-63v0v0v0z" />
    <glyph glyph-name="slash" unicode="/" horiz-adv-x="371" 
d="M34 -128l245 867h58l-247 -867h-56v0v0v0z" />
    <glyph glyph-name="zero" unicode="0" horiz-adv-x="470" 
d="M25 281l-0.000976562 192.001c0 7.33301 0.166992 14.833 0.5 22.5s0.833008 15.167 1.5 22.5l2 22.5c0.666992 7.66699 1.66699 14.834 3 21.501s2.83301 13.334 4.5 20.001s3.83398 13.334 6.50098 20.001c2.66699 7.33301 5.5 14.166 8.5 20.499s6.5 12.833 10.5 19.5
c0.666992 0.666992 1.16699 1.33398 1.5 2.00098s0.833008 1.33398 1.5 2.00098c0 0.666992 0.166992 1.16699 0.5 1.5l1.5 1.5l0.5 0.5c0.333008 0.333008 0.5 0.833008 0.5 1.5s0.333008 1.33398 1 2.00098l2 2c0.666992 1.33301 1.16699 2.5 1.5 3.5
s0.833008 1.83301 1.5 2.5c5.33301 7.33301 10.666 14 15.999 20s11 11.667 17 17s12.333 10.333 19 15s13.667 9 21 13c6.66699 3.33301 13.667 6.5 21 9.5s14.666 5.5 21.999 7.5s14.833 3.5 22.5 4.5s15.5 1.5 23.5 1.5h7.5c2.33301 0 4.5 -0.333008 6.5 -1
c4.66699 0 9.5 -0.333008 14.5 -1s9.5 -1.66699 13.5 -3c7.33301 -2 14.5 -4.16699 21.5 -6.5s13.833 -5.16602 20.5 -8.49902c5.33301 -2.66699 10.333 -5.5 15 -8.5s9 -6.16699 13 -9.5c1.33301 -1.33301 2.83301 -2.5 4.5 -3.5s3.16699 -2.16699 4.5 -3.5
c6 -4.66699 11.833 -9.83398 17.5 -15.501s11.167 -11.834 16.5 -18.501s10.166 -13.834 14.499 -21.501s8.16602 -15.167 11.499 -22.5c3.33301 -8 6.5 -16 9.5 -24s5.5 -16.333 7.5 -25c0.666992 -2 1.16699 -4.16699 1.5 -6.5s0.5 -4.5 0.5 -6.5
c1.33301 -6 2.5 -12.333 3.5 -19s1.83301 -13.334 2.5 -20.001c1.33301 -8.66699 2.33301 -17.5 3 -26.5s1 -18.167 1 -27.5v-190c0 -10 -0.166992 -19.5 -0.5 -28.5s-0.833008 -18.167 -1.5 -27.5c0 -2.66699 -0.166992 -5.5 -0.5 -8.5s-0.833008 -6.16699 -1.5 -9.5
c-0.666992 -6 -1.16699 -11.833 -1.5 -17.5s-1.16602 -11.167 -2.49902 -16.5c-0.666992 -8.66699 -2.16699 -17.167 -4.5 -25.5s-5.16602 -16.5 -8.49902 -24.5s-7 -16 -11 -24s-8.66699 -15.667 -14 -23c-5.33301 -8 -11 -15.333 -17 -22s-12 -12.667 -18 -18
c-6 -6 -12.167 -11.333 -18.5 -16s-12.833 -8.66699 -19.5 -12c-4 -2 -7.83301 -3.66699 -11.5 -5s-7.16699 -2.33301 -10.5 -3s-6.83301 -1.66699 -10.5 -3s-7.5 -2.33301 -11.5 -3c-4 -1.33301 -8 -2.33301 -12 -3s-7.66699 -1.33398 -11 -2.00098
c-4 0 -8 -0.166992 -12 -0.5s-8 -0.5 -12 -0.5c-8 0 -16 0.5 -24 1.5s-15.667 2.16699 -23 3.5l-21.5 6c-7 2 -13.833 4.66699 -20.5 8s-13.5 7.33301 -20.5 12s-13.5 9.33398 -19.5 14.001c-5.33301 5.33301 -10.833 11.166 -16.5 17.499s-11.167 13.166 -16.5 20.499
s-10.333 15 -15 23s-8.66699 16.333 -12 25c-3.33301 8 -6.16602 16.167 -8.49902 24.5s-4.16602 16.833 -5.49902 25.5s-2.5 17.5 -3.5 26.5s-1.83301 17.833 -2.5 26.5c-0.666992 9.33301 -1.16699 18.666 -1.5 27.999s-0.5 19 -0.5 29v2v0v0zM382.999 293.001
l0.0078125 163.006v2.5v2.5v2v2v1v2c-0.666992 1.33301 -1 2.66602 -1 3.99902v4v4v4v4v4c-0.666992 1.33301 -1 2.66602 -1 3.99902v4v4v4c-0.666992 1.33301 -1 2.66602 -1 3.99902v4c-0.666992 2 -1 4 -1 6v6c-0.666992 2 -1.16699 4 -1.5 6s-0.5 4 -0.5 6
c-0.666992 1.33301 -1.33398 3 -2.00098 5s-1 4 -1 6s-0.166992 4 -0.5 6s-0.833008 4 -1.5 6c-0.666992 4 -1.66699 7.83301 -3 11.5l-4 10.5c-1.33301 3.33301 -2.83301 6.83301 -4.5 10.5s-3.16699 6.83398 -4.5 9.50098
c-2.66699 5.33301 -5.83398 10.166 -9.50098 14.499s-7.5 8.5 -11.5 12.5c-3.33301 4 -7.16602 7.83301 -11.499 11.5s-8.83301 7.16699 -13.5 10.5s-9.5 6.16602 -14.5 8.49902s-10.167 4.5 -15.5 6.5c-4.66699 2 -9.66699 3.66699 -15 5s-10.666 2.33301 -15.999 3v0v0h-1
v0h-1.5c-0.333008 0 -0.5 0.333008 -0.5 1h-1.5h-0.5h-1v0h-2h-2h-1.5h-1.5h-1.5h-1.5h-1v0c-0.666992 -0.666992 -1.33398 -1 -2.00098 -1h-1h-1.5h-1.5h-0.5h-1.5h-1.5h-0.5c-0.666992 -0.666992 -1.16699 -1 -1.5 -1h-0.5h-1.5h-1.5
c-5.33301 -0.666992 -10.666 -2 -15.999 -4l-16 -6c-2.66699 -0.666992 -5.33398 -1.66699 -8.00098 -3s-5 -2.66602 -7 -3.99902c-2.66699 -2 -5.33398 -3.66699 -8.00098 -5s-5.33398 -3 -8.00098 -5l-14 -12c-4.66699 -4 -8.66699 -8.33301 -12 -13
c-4 -4.66699 -7.5 -9.5 -10.5 -14.5s-5.83301 -10.167 -8.5 -15.5c-0.666992 -1.33301 -1.33398 -2.83301 -2.00098 -4.5s-1 -3.16699 -1 -4.5c-0.666992 -1.33301 -1.33398 -2.83301 -2.00098 -4.5s-1.33398 -3.16699 -2.00098 -4.5
c-0.666992 -2.66699 -1.5 -5.83398 -2.5 -9.50098s-1.83301 -7.16699 -2.5 -10.5c0 -2 -0.166992 -3.83301 -0.5 -5.5s-0.833008 -3.16699 -1.5 -4.5c-0.666992 -2 -1.16699 -3.83301 -1.5 -5.5s-0.5 -3.5 -0.5 -5.5c-0.666992 -3.33301 -1.16699 -6.83301 -1.5 -10.5
s-0.833008 -7.16699 -1.5 -10.5v-4v-4c-0.666992 -1.33301 -1 -2.66602 -1 -3.99902v-4c-0.666992 -2.66699 -1 -5.16699 -1 -7.5v-7.5v-7.5v-7.5v-7.5v-6.5v-161v-8.5v-9.5v-8v-8v-4v-4v-5v-4c0 -2.66699 0.166992 -5.33398 0.5 -8.00098s0.833008 -5.33398 1.5 -8.00098
c0 -4.66699 0.166992 -9.16699 0.5 -13.5s0.833008 -8.5 1.5 -12.5c0.666992 -4.66699 1.5 -9.16699 2.5 -13.5s1.83301 -8.5 2.5 -12.5c1.33301 -4.66699 2.5 -9 3.5 -13s2.16699 -8 3.5 -12s3 -7.83301 5 -11.5l6 -10.5c3.33301 -6.66699 7 -12.667 11 -18
s8.33301 -10.333 13 -15c4 -4.66699 8.5 -8.66699 13.5 -12s9.83301 -6.33301 14.5 -9l15.5 -7.5c5 -2.33301 10.5 -4.16602 16.5 -5.49902s12 -2.33301 18 -3s12.333 -1 19 -1s13 0.333008 19 1s12 2 18 4c6 1.33301 12 3.33301 18 6s11.667 5.66699 17 9
s10.5 7.33301 15.5 12l14.5 14c1.33301 2 2.66602 3.83301 3.99902 5.5s2.66602 3.5 3.99902 5.5c2.66699 3.33301 5.5 7.16602 8.5 11.499s5.5 8.83301 7.5 13.5c0.666992 1.33301 1.16699 2.5 1.5 3.5s0.5 1.83301 0.5 2.5c0.666992 2 1.5 4.16699 2.5 6.5
s1.5 4.5 1.5 6.5c0.666992 1.33301 1.16699 2.5 1.5 3.5s0.5 1.83301 0.5 2.5c0.666992 2.66699 1.5 5.16699 2.5 7.5s1.5 4.83301 1.5 7.5c0.666992 2 1.16699 3.83301 1.5 5.5s0.833008 3.5 1.5 5.5c0 1.33301 0.166992 3 0.5 5s0.833008 4 1.5 6c0 4 0.166992 8 0.5 12
s0.833008 8 1.5 12v4.5v4.5v4c0 1.33301 0.333008 3 1 5v4v4v4.5v4.5v4v4v4c0 1.33301 0.333008 2.66602 1 3.99902v4v4v4v4v2v0v0z" />
    <glyph glyph-name="one" unicode="1" horiz-adv-x="470" 
d="M238 0v672h-107v67h169v-739h-62v0v0v0z" />
    <glyph glyph-name="two" unicode="2" horiz-adv-x="470" 
d="M28 0l0.00488281 66.0049l239 272h1.5c0.333008 0 0.833008 0.333008 1.5 1l1.5 1.5l1.5 1.5c0 0.666992 0.333008 1.16699 1 1.5s1.33398 0.833008 2.00098 1.5l0.5 0.5c0.333008 0.333008 0.5 0.833008 0.5 1.5l0.5 0.5l0.5 0.5c1.33301 1.33301 2.33301 2.5 3 3.5
s1.33398 1.83301 2.00098 2.5l2 2l2 2c0 0.666992 0.333008 1.33398 1 2.00098l2 2c5.33301 5.33301 10.166 11 14.499 17l12.5 18c2 3.33301 4.16699 6.5 6.5 9.5s4.5 6.16699 6.5 9.5s4.16699 6.66602 6.5 9.99902s4.5 6.66602 6.5 9.99902c4 6.66699 7.5 13.5 10.5 20.5
s5.5 14.167 7.5 21.5l4 22.5c1.33301 7.66699 2 15.5 2 23.5c0 11.333 -1 22 -3 32s-4.66699 19.333 -8 28c-3.33301 9.33301 -7.5 18.166 -12.5 26.499s-11.167 16.166 -18.5 23.499c-6.66699 7.33301 -13.834 13.666 -21.501 18.999s-15.5 10 -23.5 14
c-8 3.33301 -16.167 6 -24.5 8s-17.166 3 -26.499 3c-6 0 -12 -0.5 -18 -1.5s-11.667 -2.16699 -17 -3.5c-5.33301 -2 -10.5 -4.33301 -15.5 -7s-10.167 -5.66699 -15.5 -9s-10.5 -7 -15.5 -11s-9.16699 -8.66699 -12.5 -14c-4.66699 -4.66699 -8.66699 -9.66699 -12 -15
l-10 -16c0 -0.666992 -0.333008 -1.5 -1 -2.5s-1 -2.16699 -1 -3.5c-0.666992 0 -1 -0.333008 -1 -1v-1c-0.666992 -2 -1.33398 -3.66699 -2.00098 -5s-1 -2.66602 -1 -3.99902l-2 -4l-2 -4c0 -2 -0.166992 -3.66699 -0.5 -5s-0.5 -2.66602 -0.5 -3.99902
c-0.666992 -2.66699 -1.33398 -5.5 -2.00098 -8.5s-1.33398 -6.16699 -2.00098 -9.5c-0.666992 -2.66699 -1.16699 -5.5 -1.5 -8.5s-0.5 -6.16699 -0.5 -9.5v-2.5v-3.5v-2.5v-3.5v-2.5v-3.5v-2.5v-3.5v-1.5v-0.5v0v0v-1.5v-0.5v0v0v-1v0v-1.5v-0.5v-1.5v-0.5l-63 2v0.5v1.5
v1.5v1.5v2v2v2v2c0 16.667 1 32.667 3 48s5.33301 30 10 44c5.33301 14 11.5 27.333 18.5 40s15.167 24.667 24.5 36s19.333 21.166 30 29.499s22 15.5 34 21.5c12 5.33301 24.833 9.5 38.5 12.5s27.834 4.5 42.501 4.5c4.66699 0 9.16699 -0.166992 13.5 -0.5
s8.5 -0.833008 12.5 -1.5c2 -0.666992 4.16699 -1 6.5 -1s4.5 -0.333008 6.5 -1c6 -0.666992 12 -2 18 -4s11.667 -4.33301 17 -7s10.833 -5.66699 16.5 -9s10.834 -7 15.501 -11c4 -2.66699 7.5 -5.66699 10.5 -9s6.16699 -6.66602 9.5 -9.99902l5.5 -5.5
c1.66699 -1.66699 3.16699 -3.5 4.5 -5.5c4.66699 -5.33301 9 -11 13 -17s7.66699 -12 11 -18l10 -18.5c3.33301 -6.33301 6.33301 -12.833 9 -19.5c3.33301 -6.66699 5.83301 -13.5 7.5 -20.5s3.16699 -14.167 4.5 -21.5c1.33301 -6.66699 2.5 -13.834 3.5 -21.501
s1.5 -15.167 1.5 -22.5c0 -12.667 -0.833008 -24.667 -2.5 -36s-3.83398 -22 -6.50098 -32c-2.66699 -10.667 -5.83398 -20.667 -9.50098 -30s-8.16699 -18.333 -13.5 -27c-4.66699 -8.66699 -9.83398 -17 -15.501 -25l-17.5 -24l-18.5 -24
c-6.33301 -8 -12.833 -15.667 -19.5 -23l-1.5 -1.5l-1.5 -1.5c-0.666992 -0.666992 -1 -1.16699 -1 -1.5v-1.5c-0.666992 -0.666992 -1.33398 -1.16699 -2.00098 -1.5s-1 -0.833008 -1 -1.5l-1.5 -1.5c-0.333008 -0.333008 -0.833008 -0.5 -1.5 -0.5
c-0.666992 -0.666992 -1.33398 -1.5 -2.00098 -2.5s-1.66699 -2.16699 -3 -3.5c-0.666992 -0.666992 -1.16699 -1.33398 -1.5 -2.00098s-0.833008 -1.33398 -1.5 -2.00098l-195 -216h312v-67h-398v0v0v0z" />
    <glyph glyph-name="three" unicode="3" horiz-adv-x="470" 
d="M133 555h-63.0078c0 13.333 0.833008 26.166 2.5 38.499s4.5 24.166 8.5 35.499c3.33301 11.333 7.83301 22.333 13.5 33s12.167 20.667 19.5 30s15.333 17.666 24 24.999s17.667 13.333 27 18s19.5 8.16699 30.5 10.5s22.833 3.5 35.5 3.5
c11.333 0 21.833 -1.16699 31.5 -3.5s19.167 -5.83301 28.5 -10.5s18.333 -10.5 27 -17.5s16.667 -15.167 24 -24.5s13.833 -19 19.5 -29s10.167 -20.667 13.5 -32c4 -10.667 7 -22 9 -34s3 -24.667 3 -38c0 -8 -0.333008 -15.5 -1 -22.5s-1.66699 -13.833 -3 -20.5
c-2 -6.66699 -4 -13 -6 -19s-4.33301 -11.667 -7 -17s-5.83398 -10.5 -9.50098 -15.5s-7.16699 -10.167 -10.5 -15.5l-4.5 -4.5c-1.66699 -1.66699 -3.16699 -3.5 -4.5 -5.5c-2.66699 -3.33301 -5.5 -6.5 -8.5 -9.5l-9.5 -9.5c7.33301 -4.66699 14.5 -9.66699 21.5 -15
s13.833 -11.333 20.5 -18s12.834 -14 18.501 -22s10.834 -16.667 15.501 -26s8.66699 -18.833 12 -28.5s6.33301 -19.167 9 -28.5c2.66699 -10 4.66699 -20 6 -30s2 -20 2 -30c0 -16.667 -1.16699 -32.5 -3.5 -47.5s-6.16602 -29.5 -11.499 -43.5
s-11.666 -27.5 -18.999 -40.5s-16 -25.167 -26 -36.5c-9.33301 -11.333 -19.333 -21.333 -30 -30s-22 -15.667 -34 -21c-12 -4.66699 -24.5 -8.5 -37.5 -11.5s-26.5 -4.5 -40.5 -4.5s-27.5 1.5 -40.5 4.5s-25.5 6.83301 -37.5 11.5c-12 5.33301 -23.167 12.5 -33.5 21.5
s-20.166 19.5 -29.499 31.5c-10 11.333 -18.5 23.5 -25.5 36.5s-13.167 26.5 -18.5 40.5c-4.66699 14 -8 28.5 -10 43.5s-3 30.5 -3 46.5v0v0v0.5v1.5v0v1v0v0v0.5v1.5l62 2c0 -4.66699 0.166992 -9.33398 0.5 -14.001s0.833008 -9 1.5 -13l2 -12l2 -12c0 -4 0.5 -8 1.5 -12
s2.5 -8 4.5 -12l4 -11.5c1.33301 -3.66699 3.33301 -7.16699 6 -10.5l9.5 -16.5c3 -5 6.83301 -9.83301 11.5 -14.5c4 -4.66699 8.33301 -9.16699 13 -13.5s9.33398 -8.16602 14.001 -11.499c5.33301 -4 10.5 -7.33301 15.5 -10s10.167 -5 15.5 -7
s10.666 -3.33301 15.999 -4s11 -1 17 -1c9.33301 0 18.5 1 27.5 3s17.833 5 26.5 9s16.834 9 24.501 15s14.834 13 21.501 21c7.33301 8 13.5 16.5 18.5 25.5s9.16699 18.5 12.5 28.5s5.83301 20.333 7.5 31s2.5 21.667 2.5 33c0 8.66699 -0.666992 17 -2 25s-3 16 -5 24
c-2.66699 8 -5.5 15.833 -8.5 23.5s-6.5 15.167 -10.5 22.5c-4.66699 7.33301 -9.66699 14 -15 20s-10.666 11.333 -15.999 16c-5.33301 5.33301 -11 9.83301 -17 13.5s-12.333 6.83398 -19 9.50098c-1.33301 0 -2.5 0.166992 -3.5 0.5s-2.16699 0.833008 -3.5 1.5
c-1.33301 0 -2.5 0.166992 -3.5 0.5s-2.16699 0.833008 -3.5 1.5c-1.33301 0 -2.5 0.166992 -3.5 0.5s-2.16699 0.833008 -3.5 1.5c-1.33301 0 -2.5 0.166992 -3.5 0.5s-2.16699 0.5 -3.5 0.5h-3.5c-1 0 -2.16699 0.333008 -3.5 1h-2.5h-3.5h-4
c-1.33301 0 -2.33301 0.333008 -3 1h-3.5h-3.5h-1.5h-0.5v0v0h-1.5h-0.5h-1.5h-0.5h-1.5h-0.5v0v1h-1.5h-0.5v0v0h-1v0h-1.5h-0.5v0v0v0v0h-1v0v0v0h-1v0h-1.5h-0.5h-1.5h-0.5v0v0h-1v0h-1.5h-0.5h-1.5h-0.5v0v0h-1v0v0v0h-1v0h-1.5h-0.5h-1.5h-0.5v0v0v68l21 -2
c7.33301 -0.666992 14.5 -0.666992 21.5 0s13.833 2.33398 20.5 5.00098c7.33301 2 14.166 4.66699 20.499 8s12.5 7.33301 18.5 12c5.33301 4.66699 10.333 10 15 16s8.33398 12.667 11.001 20c3.33301 7.33301 5.66602 15.333 6.99902 24s2 18.334 2 29.001
c0 8 -0.5 15.833 -1.5 23.5s-2.83301 14.834 -5.5 21.501s-5.66699 13 -9 19s-7.66602 11.667 -12.999 17c-4.66699 5.33301 -9.5 9.83301 -14.5 13.5s-10.5 6.83398 -16.5 9.50098s-12.167 4.66699 -18.5 6s-12.833 2 -19.5 2c-7.33301 0 -14.333 -0.833008 -21 -2.5
s-12.667 -4.16699 -18 -7.5c-6 -2.66699 -11.5 -6.5 -16.5 -11.5s-9.16699 -10.833 -12.5 -17.5c-4.66699 -6.66699 -8.66699 -13.334 -12 -20.001s-5.66602 -13.667 -6.99902 -21c-2 -6.66699 -3.5 -13.834 -4.5 -21.501s-1.5 -15.5 -1.5 -23.5v2v0v0z" />
    <glyph glyph-name="four" unicode="4" horiz-adv-x="470" 
d="M328 0v135h-318v67l304 537h77v-537h56v-67h-56v-135h-63v0v0v0zM328 202v435l-244 -435h244v0v0v0z" />
    <glyph glyph-name="five" unicode="5" horiz-adv-x="470" 
d="M56 375l57 364.001h283v-67h-232l-32 -204c2 1.33301 4 2.5 6 3.5s4 2.16699 6 3.5c2 0.666992 4.16699 1.66699 6.5 3s4.5 2.33301 6.5 3l12.5 6c4.33301 2 8.83301 3.66699 13.5 5l13.5 4c4.33301 1.33301 8.83301 2.33301 13.5 3
c5.33301 0.666992 10.166 1.16699 14.499 1.5s8.83301 0.5 13.5 0.5c15.333 0 29.666 -1.66699 42.999 -5s26.333 -8.33301 39 -15s24.667 -14.667 36 -24s22 -20.333 32 -33s18.833 -26 26.5 -40s13.834 -28.667 18.501 -44c5.33301 -14.667 9.16602 -30 11.499 -46
s3.5 -32.667 3.5 -50s-1.16699 -34.166 -3.5 -50.499s-6.16602 -32.166 -11.499 -47.499c-4.66699 -14.667 -10.834 -29 -18.501 -43s-16.5 -27.333 -26.5 -40s-20.667 -24 -32 -34s-23.333 -18 -36 -24c-12.667 -4.66699 -25.834 -8.66699 -39.501 -12
s-27.834 -5 -42.501 -5s-28.834 1.5 -42.501 4.5s-27.167 6.83301 -40.5 11.5c-12.667 5.33301 -24.667 12.5 -36 21.5s-21.666 19.5 -30.999 31.5c-10 11.333 -19 23.5 -27 36.5s-14.667 26.833 -20 41.5s-9.66602 30 -12.999 46s-5.33301 32.333 -6 49l63 2
c0 -12.667 1.16699 -24.667 3.5 -36s5.16602 -22 8.49902 -32c4 -10 8.83301 -19.667 14.5 -29s11.834 -18.333 18.501 -27c7.33301 -8.66699 14.666 -16.334 21.999 -23.001s15.333 -12 24 -16c8.66699 -4.66699 17.834 -8 27.501 -10s19.834 -3 30.501 -3s21 1 31 3
s19.667 5.33301 29 10c8.66699 4.66699 17.167 10.5 25.5 17.5s15.833 15.167 22.5 24.5c7.33301 9.33301 13.833 19.166 19.5 29.499s9.83398 20.833 12.501 31.5c3.33301 11.333 6 22.666 8 33.999s3 23.333 3 36c0 12 -1 24 -3 36s-4.66699 23.333 -8 34
c-2.66699 11.333 -6.66699 22 -12 32s-11.666 19.667 -18.999 29s-15 17.666 -23 24.999s-16.667 13.333 -26 18c-8.66699 4.66699 -18 8.16699 -28 10.5s-20.333 3.5 -31 3.5c-6.66699 0 -13.167 -0.5 -19.5 -1.5s-12.166 -2.5 -17.499 -4.5c-6 -2 -12 -4.33301 -18 -7
s-11.667 -5.66699 -17 -9l-16 -12c-5.33301 -4 -10.333 -8.33301 -15 -13s-9.33398 -9.66699 -14.001 -15s-8.66699 -10.666 -12 -15.999l-50 23v0v0v0z" />
    <glyph glyph-name="six" unicode="6" horiz-adv-x="470" 
d="M250 739l73.002 -0.00683594l-148 -260c3.33301 1.33301 6.33301 2.83301 9 4.5s5.33398 3.16699 8.00098 4.5c1.33301 0.666992 2.83301 1.33398 4.5 2.00098s3.16699 1.33398 4.5 2.00098c1.33301 0 2.83301 0.333008 4.5 1s3.16699 1.33398 4.5 2.00098
c3.33301 0.666992 6.5 1.16699 9.5 1.5s6.16699 0.833008 9.5 1.5s6.83301 1.16699 10.5 1.5s6.83398 0.5 9.50098 0.5c14 0 27.5 -1.66699 40.5 -5s25.5 -8.33301 37.5 -15s23.333 -15 34 -25s20.667 -21.667 30 -35s17.666 -27 24.999 -41s13.333 -28.333 18 -43
s8.16699 -29.5 10.5 -44.5s3.83301 -30.167 4.5 -45.5v-1.5v-0.5v0v0v0v0v0v0v-1v0v0v0v-2.5v-3.5v-2v-2v-1.5v-0.5v-1.5v-0.5c-0.666992 -0.666992 -1 -1.33398 -1 -2.00098v-1v-1.5v-0.5l-2 -22c-0.666992 -7.33301 -2 -14.666 -4 -21.999
c-1.33301 -6.66699 -3 -13.5 -5 -20.5s-4.33301 -14.167 -7 -21.5c-2.66699 -6.66699 -5.66699 -13.5 -9 -20.5s-6.66602 -13.5 -9.99902 -19.5s-7 -12 -11 -18s-8 -11.667 -12 -17c-5.33301 -6.66699 -10.833 -12.667 -16.5 -18l-17.5 -16c-6 -4.66699 -12 -9 -18 -13
s-12.333 -7.66699 -19 -11c-3.33301 -1.33301 -6.66602 -2.5 -9.99902 -3.5s-6.66602 -1.83301 -9.99902 -2.5s-6.66602 -1.66699 -9.99902 -3s-6.66602 -2.33301 -9.99902 -3l-11.5 -2l-10.5 -2c-3.33301 0 -6.83301 -0.166992 -10.5 -0.5s-7.5 -0.5 -11.5 -0.5
c-14.667 0 -28.834 1.66699 -42.501 5s-26.834 7.33301 -39.501 12c-12.667 6 -24.667 13.833 -36 23.5s-22 20.834 -32 33.501c-10.667 12.667 -19.834 26 -27.501 40s-14.167 28.333 -19.5 43c-4.66699 15.333 -8.33398 31 -11.001 47s-4 32.667 -4 50
c0 8 0.166992 16 0.5 24s0.833008 15.667 1.5 23l4 21c1.33301 6.66699 3 13.334 5 20.001c1.33301 6.66699 3.16602 13.167 5.49902 19.5s4.83301 12.5 7.5 18.5c1.33301 3.33301 2.66602 6.5 3.99902 9.5s3 6.16699 5 9.5c1.33301 2.66699 2.66602 5.66699 3.99902 9
s2.66602 6.33301 3.99902 9s2.83301 5.33398 4.5 8.00098s3.16699 5.33398 4.5 8.00098c0.666992 1.33301 1.5 2.83301 2.5 4.5s1.83301 3.16699 2.5 4.5s1.5 2.83301 2.5 4.5s1.83301 3.16699 2.5 4.5c2 2.66699 3.83301 5.5 5.5 8.5s3.16699 5.83301 4.5 8.5
c1.33301 1.33301 2.33301 2.83301 3 4.5s1.66699 3.16699 3 4.5c0.666992 1.33301 1.5 2.83301 2.5 4.5s1.83301 3.5 2.5 5.5l148 264v0v0v0zM234.002 430.993c-10.667 -0.666992 -20.833 -2.33105 -30.5 -4.99805s-19.167 -6.33398 -28.5 -11.001
c-8.66699 -4.66699 -17 -10.167 -25 -16.5s-15.667 -14.166 -23 -23.499c-6.66699 -8.66699 -12.834 -18 -18.501 -28s-10.167 -20.333 -13.5 -31c-4 -10.667 -6.83301 -21.834 -8.5 -33.501s-2.5 -23.5 -2.5 -35.5c0 -12.667 0.833008 -25 2.5 -37s4.16699 -23.667 7.5 -35
c3.33301 -10.667 7.66602 -21.334 12.999 -32.001s11.333 -20.667 18 -30c7.33301 -9.33301 15 -17.5 23 -24.5s16.667 -13.167 26 -18.5c9.33301 -4.66699 19 -8.16699 29 -10.5s20.333 -3.5 31 -3.5s21 1 31 3s19.333 5.33301 28 10c9.33301 4.66699 18 10.5 26 17.5
s15.667 15.167 23 24.5s13.833 19 19.5 29s10.167 20.333 13.5 31c3.33301 11.333 6 22.666 8 33.999s3 23.333 3 36s-1 24.834 -3 36.501s-4.66699 22.834 -8 33.501c-3.33301 11.333 -7.66602 22 -12.999 32s-11.666 19.667 -18.999 29s-15 17.666 -23 24.999
s-16.667 13.333 -26 18s-19 8.16699 -29 10.5s-20.333 3.5 -31 3.5v2v0v0z" />
    <glyph glyph-name="seven" unicode="7" horiz-adv-x="470" 
d="M91 0l259 672h-296v67h362v-67l-257 -672h-68v0v0v0z" />
    <glyph glyph-name="eight" unicode="8" horiz-adv-x="470" 
d="M141 413c-6 3.33301 -11.6699 7 -17.0029 11s-10.333 8.33301 -15 13c-4.66699 5.33301 -8.83398 10.833 -12.501 16.5s-7.16699 11.834 -10.5 18.501c-2.66699 6.66699 -5.16699 13.5 -7.5 20.5s-4.16602 13.833 -5.49902 20.5c-2 7.33301 -3.33301 14.833 -4 22.5
s-1 15.5 -1 23.5c0 14 1 27.333 3 40s5 24.667 9 36c4.66699 11.333 10 22.166 16 32.499s13.333 19.833 22 28.5c8 8.66699 16.5 16.167 25.5 22.5s18.5 11.833 28.5 16.5s20.5 8.16699 31.5 10.5s22.5 3.5 34.5 3.5c11.333 0 22.333 -1.16699 33 -3.5
s20.667 -5.83301 30 -10.5s18.5 -10.667 27.5 -18s17.5 -15.666 25.5 -24.999c7.33301 -9.33301 14 -19.333 20 -30s11.333 -21.667 16 -33c3.33301 -11.333 6.16602 -23.333 8.49902 -36s3.5 -25.667 3.5 -39c0 -7.33301 -0.5 -14.666 -1.5 -21.999
s-2.5 -14.666 -4.5 -21.999c-1.33301 -6.66699 -3.16602 -13.5 -5.49902 -20.5s-5.16602 -13.833 -8.49902 -20.5s-7 -12.834 -11 -18.501s-8.33301 -11.167 -13 -16.5c-4.66699 -4.66699 -9.5 -8.83398 -14.5 -12.501s-10.5 -7.16699 -16.5 -10.5
c8 -4.66699 15.5 -9.66699 22.5 -15s13.833 -11.333 20.5 -18s13 -13.667 19 -21s11.333 -15.666 16 -24.999c4.66699 -8.66699 8.83398 -17.834 12.501 -27.501s6.83398 -19.167 9.50098 -28.5c2.66699 -10 4.66699 -20 6 -30s2 -20 2 -30
c0 -16.667 -1.33301 -32.5 -4 -47.5s-6.66699 -29.167 -12 -42.5c-4.66699 -14 -10.834 -27 -18.501 -39s-16.5 -23.667 -26.5 -35c-10 -10.667 -20.5 -20.167 -31.5 -28.5s-22.5 -15.166 -34.5 -20.499c-12 -4.66699 -24.167 -8.33398 -36.5 -11.001s-25.5 -4 -39.5 -4
c-13.333 0 -26.333 1.33301 -39 4s-24.667 6.33398 -36 11.001c-11.333 5.33301 -22.333 12.166 -33 20.499s-21 18.166 -31 29.499s-18.5 23 -25.5 35s-12.833 24.667 -17.5 38c-5.33301 13.333 -9.16602 27.5 -11.499 42.5s-3.5 30.5 -3.5 46.5v4.5v4.5v4.5
c0 1.66699 0.333008 3.5 1 5.5v4.5c0 1.66699 0.333008 3.5 1 5.5c0 1.33301 0.166992 2.83301 0.5 4.5s0.833008 3.5 1.5 5.5c1.33301 8 3 16 5 24s4.33301 16 7 24c3.33301 8 6.83301 15.833 10.5 23.5s7.83398 15.167 12.501 22.5s9.5 14.333 14.5 21
s10.167 12.334 15.5 17.001c5.33301 5.33301 11.166 10.166 17.499 14.499s12.833 7.83301 19.5 10.5v2v0v0zM232.997 373c-9.33301 -0.666992 -18.502 -2.16211 -27.502 -4.49512s-17.167 -5.5 -24.5 -9.5c-8.66699 -4 -16.5 -9 -23.5 -15s-13.833 -12.667 -20.5 -20
c-6.66699 -8 -12.5 -16.333 -17.5 -25s-9.16699 -17.667 -12.5 -27c-2.66699 -9.33301 -4.83398 -19 -6.50098 -29s-2.5 -20.667 -2.5 -32c0 -10.667 0.833008 -21 2.5 -31s3.83398 -19.667 6.50098 -29c3.33301 -8.66699 7.66602 -17.334 12.999 -26.001
s11.333 -16.667 18 -24s13.5 -13.833 20.5 -19.5s14.5 -10.5 22.5 -14.5s16.333 -6.83301 25 -8.5s17.334 -2.5 26.001 -2.5c9.33301 0 18.5 0.833008 27.5 2.5s17.833 4.5 26.5 8.5c8 4 15.833 8.83301 23.5 14.5s14.834 12.5 21.501 20.5
c7.33301 7.33301 13.5 15.333 18.5 24s9.16699 17.667 12.5 27s5.83301 19.333 7.5 30s2.5 21.667 2.5 33s-1 22.166 -3 32.499s-4.66699 19.833 -8 28.5c-3.33301 9.33301 -7.5 18.166 -12.5 26.499s-11.167 16.166 -18.5 23.499c-6.66699 7.33301 -14 13.666 -22 18.999
s-16 10 -24 14c-8 3.33301 -16.167 6 -24.5 8s-17.166 3 -26.499 3v2v0v0zM237.995 680.005c-7.33301 -0.666992 -14.5 -1.83008 -21.5 -3.49707s-13.167 -3.83398 -18.5 -6.50098c-6 -2.66699 -11.833 -6 -17.5 -10s-11.167 -8.66699 -16.5 -14s-10.166 -11 -14.499 -17
s-7.83301 -12.667 -10.5 -20c-2.66699 -6.66699 -4.66699 -13.834 -6 -21.501s-2 -15.834 -2 -24.501s0.666992 -17 2 -25s3.33301 -15.667 6 -23s6 -14.333 10 -21s8.33301 -12.667 13 -18c5.33301 -6 10.666 -11 15.999 -15s11.333 -7.66699 18 -11
c6 -2.66699 12.333 -4.66699 19 -6s14 -2 22 -2c3.33301 0 6.5 0.166992 9.5 0.5s6.16699 0.833008 9.5 1.5c2.66699 0.666992 5.66699 1.5 9 2.5s6.33301 2.16699 9 3.5c6 3.33301 11.833 7.16602 17.5 11.499s10.834 9.5 15.501 15.5
c5.33301 5.33301 9.83301 11.333 13.5 18s6.83398 13.334 9.50098 20.001c2.66699 7.33301 4.83398 14.666 6.50098 21.999s2.5 15 2.5 23s-0.666992 15.833 -2 23.5s-3.33301 14.834 -6 21.501c-2.66699 7.33301 -5.83398 14 -9.50098 20s-7.83398 12 -12.501 18
c-4.66699 5.33301 -9.83398 10.333 -15.501 15s-11.5 8.33398 -17.5 11.001c-6 3.33301 -12.167 5.66602 -18.5 6.99902s-12.833 2 -19.5 2v2v0v0z" />
    <glyph glyph-name="nine" unicode="9" horiz-adv-x="470" 
d="M220 0l-73.0039 0.000976562l148 259c-1.33301 -2 -2.83301 -3.5 -4.5 -4.5s-3.16699 -2.16699 -4.5 -3.5c-1.33301 -0.666992 -2.83301 -1.5 -4.5 -2.5s-3.16699 -1.83301 -4.5 -2.5s-2.83301 -1.33398 -4.5 -2.00098s-3.5 -1.33398 -5.5 -2.00098l-4 -2
c-1.33301 -0.666992 -2.66602 -1 -3.99902 -1c-2.66699 -0.666992 -5.66699 -1.5 -9 -2.5s-6.66602 -1.5 -9.99902 -1.5c-3.33301 -0.666992 -6.66602 -1 -9.99902 -1h-10c-14.667 0 -28.5 1.5 -41.5 4.5s-25.5 7.83301 -37.5 14.5c-11.333 6.66699 -22.333 15 -33 25
s-20.667 21.667 -30 35s-17.5 26.833 -24.5 40.5s-13.167 27.834 -18.5 42.501c-4.66699 14.667 -8.16699 29.667 -10.5 45s-3.5 31 -3.5 47v0v0v0v1v0v0v0v0v0v0v0.5v1.5v0.5v1.5v0.5v1.5v0v1v0v0v0.5v1.5v0v0v0.5v1.5v12c0 4 0.333008 8 1 12
c0.666992 3.33301 1.33398 7 2.00098 11l2 12c1.33301 7.33301 3.16602 14.833 5.49902 22.5s4.83301 15.167 7.5 22.5c2 5.33301 4 10.333 6 15l6 14c0.666992 2 1.66699 4.16699 3 6.5s2.33301 4.5 3 6.5c3.33301 6.66699 7.16602 13 11.499 19l13.5 18
c5.33301 6.66699 10.666 12.834 15.999 18.501s11 10.834 17 15.501s12.167 9 18.5 13s12.833 7.66699 19.5 11c4 2 8.16699 3.83301 12.5 5.5s8.83301 3.5 13.5 5.5c2 0.666992 4.16699 1.33398 6.5 2.00098s4.5 1.33398 6.5 2.00098
c7.33301 1.33301 14.666 2.5 21.999 3.5s15 1.5 23 1.5c14.667 0 28.667 -1.66699 42 -5s26.333 -8.33301 39 -15s24.667 -14.667 36 -24s22.333 -20.333 33 -33s19.834 -25.834 27.501 -39.501s13.834 -28.167 18.501 -43.5c5.33301 -14.667 9.33301 -30 12 -46
s4 -32.667 4 -50c0 -5.33301 -0.166992 -10.833 -0.5 -16.5s-0.833008 -10.834 -1.5 -15.501c0 -2.66699 -0.166992 -5.16699 -0.5 -7.5s-0.5 -4.83301 -0.5 -7.5c-0.666992 -7.33301 -1.83398 -14.5 -3.50098 -21.5s-3.5 -13.833 -5.5 -20.5l-6 -19.5
c-2 -6.33301 -4.33301 -12.5 -7 -18.5c-1.33301 -2.66699 -2.66602 -5.5 -3.99902 -8.5s-2.66602 -6.16699 -3.99902 -9.5c-1.33301 -2.66699 -2.66602 -5.5 -3.99902 -8.5s-2.66602 -6.16699 -3.99902 -9.5c-0.666992 -1.33301 -1.5 -2.83301 -2.5 -4.5
s-1.83301 -3.16699 -2.5 -4.5s-1.33398 -2.83301 -2.00098 -4.5s-1.66699 -3.16699 -3 -4.5c-1.33301 -2.66699 -2.83301 -5.33398 -4.5 -8.00098s-3.16699 -5.33398 -4.5 -8.00098c-2 -2.66699 -3.83301 -5.5 -5.5 -8.5s-3.16699 -6.16699 -4.5 -9.5
c-0.666992 -1.33301 -1.5 -2.83301 -2.5 -4.5s-1.83301 -3.16699 -2.5 -4.5c-1.33301 -1.33301 -2.33301 -2.83301 -3 -4.5s-1.66699 -3.16699 -3 -4.5l-148 -260v0v0v0zM83.9961 496.001c-0.666992 -12.667 -0.170898 -24.8271 1.49609 -36.4941s4.5 -23.167 8.5 -34.5
c3.33301 -10.667 8 -21.167 14 -31.5s12.667 -20.166 20 -29.499s14.833 -17.5 22.5 -24.5s15.834 -12.833 24.501 -17.5s17.5 -8.16699 26.5 -10.5s18.5 -3.5 28.5 -3.5v0v0h0.5h1.5v0v0v0h1v0v0v0h1v0v0h0.5h1.5h0.5h1.5v0h1v0h1v0v0h0.5h1.5v0v0v0h1v0v0
c10 0 19.667 1 29 3s18.333 5.33301 27 10c8.66699 4 16.834 9.5 24.501 16.5s14.834 14.833 21.501 23.5c6.66699 9.33301 12.5 18.666 17.5 27.999s9.16699 19.333 12.5 30s6 21.667 8 33s3 23 3 35c0 12.667 -1 25 -3 37s-4.66699 23.333 -8 34
c-3.33301 11.333 -7.66602 22.166 -12.999 32.499s-11.333 20.166 -18 29.499c-7.33301 9.33301 -15 17.666 -23 24.999s-16.667 13.333 -26 18c-8.66699 5.33301 -17.834 9.16602 -27.501 11.499s-20.167 3.5 -31.5 3.5c-10.667 0 -21 -1.16699 -31 -3.5
s-19.667 -5.83301 -29 -10.5c-8.66699 -4.66699 -17.167 -10.334 -25.5 -17.001s-16.166 -14.667 -23.499 -24s-13.833 -19 -19.5 -29s-10.167 -20.333 -13.5 -31c-4 -10.667 -6.83301 -21.834 -8.5 -33.501s-2.16699 -23.5 -1.5 -35.5v2v0v0z" />
    <glyph glyph-name="colon" unicode=":" 
d="M85 0v126h63v-126h-63v0v0v0zM85 384v126h63v-126h-63v0v0v0z" />
    <glyph glyph-name="semicolon" unicode=";" 
d="M34 -67l75 193h63l-75 -193h-63v0v0v0zM109 384v126h63v-126h-63v0v0v0z" />
    <glyph glyph-name="less" unicode="&#x3c;" horiz-adv-x="515" 
d="M122 301l352 -191v-73l-433 232v64l433 232v-73l-352 -191v0v0v0z" />
    <glyph glyph-name="equal" unicode="=" horiz-adv-x="515" 
d="M471 241v-75h-428v75h428v0v0v0zM471 436v-75h-428v75h428v0v0v0z" />
    <glyph glyph-name="greater" unicode="&#x3e;" horiz-adv-x="515" 
d="M40 110l352 191l-352 191v73l433 -232v-64l-433 -232v73v0v0v0z" />
    <glyph glyph-name="question" unicode="?" horiz-adv-x="502" 
d="M224 0v126h63v-126h-63v0v0v0zM115 508l-60.0049 -0.00585938v21v0.5v1.5v2v2v2v2v2c0 0.666992 0.333008 1.33398 1 2.00098c0 6.66699 0.5 13.167 1.5 19.5s2.5 12.5 4.5 18.5c0.666992 3.33301 1.33398 6.5 2.00098 9.5s1.33398 6.16699 2.00098 9.5
c1.33301 2.66699 2.5 5.66699 3.5 9s2.16699 6.33301 3.5 9l9.5 17.5l8.5 16.5c3.33301 5.33301 6.83301 10.5 10.5 15.5s7.5 9.83301 11.5 14.5c4.66699 5.33301 9.5 10.5 14.5 15.5s10.167 9.5 15.5 13.5s11 7.83301 17 11.5s12.333 6.83398 19 9.50098
c3.33301 1.33301 6.5 2.5 9.5 3.5s6.16699 2.16699 9.5 3.5c2.66699 0.666992 5.66699 1.5 9 2.5s6.33301 1.83301 9 2.5l10 2l10 2c3.33301 0 6.66602 0.166992 9.99902 0.5s6.66602 0.5 9.99902 0.5c13.333 0 26.333 -1.5 39 -4.5s24.667 -7.16699 36 -12.5s22 -12 32 -20
s19.333 -17.333 28 -28c9.33301 -10.667 17.333 -22 24 -34s12.334 -24.667 17.001 -38s8.16699 -27.333 10.5 -42s3.5 -30 3.5 -46c0 -9.33301 -0.666992 -18.333 -2 -27s-3 -17 -5 -25s-4.5 -15.667 -7.5 -23s-6.5 -14.333 -10.5 -21c-2 -3.33301 -4.16699 -6.5 -6.5 -9.5
s-4.5 -6.16699 -6.5 -9.5l-6.5 -8.5c-2.33301 -3 -4.5 -6.16699 -6.5 -9.5c-2.66699 -2.66699 -5.16699 -5.5 -7.5 -8.5s-4.5 -6.16699 -6.5 -9.5c-2.66699 -2.66699 -5.16699 -5.5 -7.5 -8.5s-4.83301 -5.83301 -7.5 -8.5s-5.16699 -5.5 -7.5 -8.5
s-4.83301 -5.83301 -7.5 -8.5c-2 -3.33301 -4.16699 -6.33301 -6.5 -9s-4.5 -5.66699 -6.5 -9c-2.66699 -2.66699 -5.16699 -5.66699 -7.5 -9l-6.5 -9c-2 -3.33301 -4 -6.5 -6 -9.5s-4 -6.16699 -6 -9.5c-4 -6.66699 -7.66699 -13.5 -11 -20.5s-6 -14.167 -8 -21.5
c-2 -8 -3.5 -16.167 -4.5 -24.5s-1.5 -17.166 -1.5 -26.499l-63 2v-1v0v0v1v0v0v0.5v1.5v0v0v0.5v1.5v0v0v0.5v1.5c0 10 0.5 19.833 1.5 29.5s2.5 18.834 4.5 27.501c2 9.33301 4.66699 18.166 8 26.499s7 16.5 11 24.5l14 23.5
c4.66699 7.66699 9.33398 14.834 14.001 21.501c5.33301 7.33301 11 14.333 17 21l18 20l1.5 1.5l1.5 1.5l1.5 1.5l1.5 1.5c0 0.666992 0.333008 1.16699 1 1.5s1.33398 0.833008 2.00098 1.5l1.5 1.5c0.333008 0.333008 0.5 0.833008 0.5 1.5
c1.33301 1.33301 2.33301 2.5 3 3.5s1.33398 1.83301 2.00098 2.5l3.5 3.5l2.5 2.5l10 12c3.33301 4 6.33301 8 9 12s5.16699 8.16699 7.5 12.5l7.5 13.5c2.66699 4 4.83398 8.5 6.50098 13.5s3.16699 10.167 4.5 15.5s2.33301 11 3 17s1 12.333 1 19
c0 10.667 -0.833008 20.834 -2.5 30.501s-4.16699 18.834 -7.5 27.501s-7.5 17 -12.5 25s-11.167 15.333 -18.5 22c-6.66699 7.33301 -13.667 13.5 -21 18.5s-14.666 9.16699 -21.999 12.5c-8 3.33301 -16 5.83301 -24 7.5s-16.333 2.5 -25 2.5s-17.5 -1 -26.5 -3
s-17.5 -5 -25.5 -9c-8.66699 -4 -16.5 -9 -23.5 -15s-13.833 -13 -20.5 -21c-6.66699 -8.66699 -12.5 -17.5 -17.5 -26.5s-9.16699 -18.167 -12.5 -27.5c-2.66699 -9.33301 -4.83398 -19 -6.50098 -29s-2.5 -20.333 -2.5 -31v-1.5v-0.5v0v0v-1v0v-1.5v-0.5v0v0v-1.5v-0.5v0
v0v-1v0v-1.5v-0.5v0v0v2v0v0z" />
    <glyph glyph-name="at" unicode="@" horiz-adv-x="736" 
d="M612 175l51 0.978516c-6.66699 -15.333 -14.334 -29.833 -23.001 -43.5s-18 -26.167 -28 -37.5c-9.33301 -11.333 -19.5 -22 -30.5 -32s-23.167 -19 -36.5 -27c-8 -5.33301 -16.5 -10.333 -25.5 -15s-17.833 -8.66699 -26.5 -12c-4 -2 -8.16699 -3.66699 -12.5 -5
l-13.5 -4c-13.333 -3.33301 -26.833 -6 -40.5 -8s-27.5 -3 -41.5 -3c-22.667 0 -44.667 2.16699 -66 6.5s-41.666 10.833 -60.999 19.5c-19.333 9.33301 -37.833 21 -55.5 35s-34.167 30.333 -49.5 49s-29 38.334 -41 59.001s-21.667 42.334 -29 65.001
s-13 46.334 -17 71.001s-6 50.334 -6 77.001c0 26 2 51.167 6 75.5s10 47.833 18 70.5c7.33301 22 17.166 43.167 29.499 63.5s26.5 39.833 42.5 58.5c15.333 18.667 31.833 35 49.5 49s35.834 25.333 54.501 34c19.333 9.33301 39.333 16.333 60 21s42.334 7 65.001 7
c9.33301 0 18.5 -0.5 27.5 -1.5s17.833 -2.5 26.5 -4.5c9.33301 -2 18.5 -4.33301 27.5 -7s17.833 -5.66699 26.5 -9c8.66699 -4 17.167 -8.33301 25.5 -13s16.166 -9.66699 23.499 -15l22.5 -17c7.66699 -6 15.167 -12.667 22.5 -20c7.33301 -8 14.166 -16 20.499 -24
s12.5 -16.333 18.5 -25c5.33301 -8.66699 10.333 -17.667 15 -27s9 -18.666 13 -27.999s7.5 -19 10.5 -29s5.16699 -20.667 6.5 -32l4 -33c1.33301 -11.333 2 -22.666 2 -33.999c0 -5.33301 -0.166992 -10.833 -0.5 -16.5s-0.833008 -11.5 -1.5 -17.5
c0 -2.66699 -0.166992 -5.33398 -0.5 -8.00098s-0.5 -5.33398 -0.5 -8.00098c-0.666992 -8 -2 -16 -4 -24l-6 -23c-2 -8 -4.33301 -15.667 -7 -23s-5.66699 -14.666 -9 -21.999s-6.83301 -14.5 -10.5 -21.5l-10.5 -20.5c-4.66699 -7.33301 -9.5 -14.5 -14.5 -21.5
s-10.167 -13.5 -15.5 -19.5c-4.66699 -6.66699 -10 -13 -16 -19s-12.333 -11.667 -19 -17s-13.167 -10 -19.5 -14s-13.166 -7.66699 -20.499 -11c-6.66699 -2.66699 -13.834 -4.66699 -21.501 -6s-15.5 -2 -23.5 -2h-1.5h-1.5h-2h-2v0v0h-1v0h-1.5
c-0.333008 0 -0.5 0.333008 -0.5 1h-1.5h-0.5h-1v0c-3.33301 0.666992 -6.66602 1.5 -9.99902 2.5s-6.66602 1.83301 -9.99902 2.5c-2.66699 1.33301 -5.5 2.83301 -8.5 4.5s-5.83301 3.5 -8.5 5.5s-5.33398 4.33301 -8.00098 7s-4.66699 5.33398 -6 8.00098
c-2.66699 3.33301 -4.66699 6.83301 -6 10.5l-4 11.5c-2.66699 -3.33301 -5.33398 -6.5 -8.00098 -9.5s-5.66699 -5.83301 -9 -8.5c-2 -1.33301 -3.83301 -2.66602 -5.5 -3.99902s-3.16699 -2.66602 -4.5 -3.99902c-1.33301 -0.666992 -2.83301 -1.5 -4.5 -2.5
s-3.5 -2.16699 -5.5 -3.5c-4 -2.66699 -7.83301 -4.83398 -11.5 -6.50098s-7.16699 -3.16699 -10.5 -4.5c-1.33301 -0.666992 -2.5 -1.16699 -3.5 -1.5s-2.16699 -0.833008 -3.5 -1.5c-2.66699 -0.666992 -5.16699 -1.16699 -7.5 -1.5s-4.5 -0.833008 -6.5 -1.5h-0.5h-0.5
c-0.666992 -0.666992 -1.16699 -1 -1.5 -1h-0.5h-2h-1c-0.666992 -0.666992 -1.16699 -1 -1.5 -1h-1.5h-1.5h-1.5h-2h-3h-2h-3c-8.66699 0 -17.167 0.833008 -25.5 2.5s-16.166 4.5 -23.499 8.5c-6.66699 4 -13.167 8.83301 -19.5 14.5s-12.166 12.167 -17.499 19.5
s-10.166 15.166 -14.499 23.499s-7.83301 16.833 -10.5 25.5s-4.66699 17.667 -6 27s-2 19.333 -2 30v9.5v8.5c0 3.33301 0.166992 6.5 0.5 9.5s0.833008 5.83301 1.5 8.5c0.666992 3.33301 1.16699 6.5 1.5 9.5s0.833008 5.83301 1.5 8.5c0 3.33301 0.333008 6.5 1 9.5
s1.33398 6.16699 2.00098 9.5c3.33301 14.667 7.16602 29 11.499 43s9.5 27.333 15.5 40c6 13.333 12.667 26.333 20 39s15.666 25.334 24.999 38.001c9.33301 12 19 22.5 29 31.5s20.667 16.5 32 22.5s22.833 10.667 34.5 14s24.167 5 37.5 5
c4.66699 0 9.33398 -0.5 14.001 -1.5s9.33398 -2.16699 14.001 -3.5c2 -0.666992 4.16699 -1.5 6.5 -2.5s4.83301 -1.83301 7.5 -2.5c2.66699 -1.33301 5.16699 -2.5 7.5 -3.5s4.5 -2.16699 6.5 -3.5c1.33301 -0.666992 2.66602 -1.66699 3.99902 -3
s2.66602 -2.33301 3.99902 -3c2.66699 -2.66699 5.5 -5.16699 8.5 -7.5s5.5 -4.83301 7.5 -7.5c3.33301 -4 6.33301 -8.5 9 -13.5s5 -10.167 7 -15.5l13 49h57l-86 -305c-0.666992 -0.666992 -1.16699 -1.5 -1.5 -2.5s-0.5 -1.83301 -0.5 -2.5v-2v-2l-1.5 -1.5
c-0.333008 -0.333008 -0.5 -0.833008 -0.5 -1.5v-0.5v-0.5c-0.666992 -0.666992 -1 -1.16699 -1 -1.5v-0.5v-1.5v-0.5v-1v0c-0.666992 -0.666992 -1 -1.16699 -1 -1.5v-0.5v-1.5v-0.5v-1.5v-0.5v0v0v-1v0c-0.666992 -0.666992 -1 -1.16699 -1 -1.5v-0.5v0v0v-1v0
c-0.666992 -1.33301 -1.16699 -2.66602 -1.5 -3.99902s-0.5 -2.66602 -0.5 -3.99902c-0.666992 -0.666992 -1.16699 -1.5 -1.5 -2.5s-0.5 -2.16699 -0.5 -3.5v-3.5v-3.5v-2.5v-2.5v-7c0 -2 0.333008 -3.66699 1 -5c0.666992 -2 1.5 -3.66699 2.5 -5
s1.83301 -2.66602 2.5 -3.99902c1.33301 -1.33301 2.83301 -2.5 4.5 -3.5s3.16699 -1.83301 4.5 -2.5s2.83301 -1.16699 4.5 -1.5s3.5 -0.5 5.5 -0.5h3h2h3c0.666992 0 1.33398 0.333008 2.00098 1h3c0.666992 0 1.33398 0.333008 2.00098 1h2
c0.666992 0 1.33398 0.333008 2.00098 1l1 0.5c0.666992 0.333008 1.33398 0.5 2.00098 0.5s1.16699 0.166992 1.5 0.5s0.833008 0.5 1.5 0.5c0.666992 0.666992 1.5 1.16699 2.5 1.5s2.16699 0.833008 3.5 1.5c0.666992 0.666992 1.5 1.33398 2.5 2.00098
s2.16699 1.33398 3.5 2.00098l1.5 1.5c0.333008 0.333008 0.833008 0.5 1.5 0.5c0.666992 0.666992 1.16699 1 1.5 1s0.833008 0.333008 1.5 1s1.5 1.33398 2.5 2.00098s2.16699 1.33398 3.5 2.00098c1.33301 1.33301 2.66602 2.5 3.99902 3.5s2.66602 2.16699 3.99902 3.5
c3.33301 2.66699 6.33301 5.33398 9 8.00098l8 8l2.5 2.5l2.5 2.5c1.33301 2 2.83301 4 4.5 6s3.5 4 5.5 6c0 0.666992 0.333008 1.33398 1 2.00098l2 2l1.5 1.5c0.333008 0.333008 0.5 0.833008 0.5 1.5s0.166992 1.16699 0.5 1.5l1.5 1.5
c0 0.666992 0.166992 1.16699 0.5 1.5l1.5 1.5l0.5 1c0.333008 0.666992 0.833008 1.33398 1.5 2.00098v0.5c0 0.333008 0.333008 0.833008 1 1.5c0 0.666992 0.166992 1.16699 0.5 1.5l1.5 1.5c2.66699 4.66699 5.16699 9.5 7.5 14.5l7.5 15.5
c2.66699 5.33301 5 10.666 7 15.999s3.66699 11 5 17c1.33301 4 2.5 7.83301 3.5 11.5s1.83301 7.16699 2.5 10.5c0.666992 2 1.16699 4 1.5 6s0.833008 4 1.5 6c1.33301 5.33301 2.5 11 3.5 17s1.83301 12 2.5 18v2v2v2v2v2v2v2v2v2v2v2
c0 0.666992 0.333008 1.33398 1 2.00098v2v2v2v2c0 20.667 -1.5 40.167 -4.5 58.5s-7.83301 35.5 -14.5 51.5s-14.834 31 -24.501 45s-21.167 27 -34.5 39c-12.667 12 -25.834 22.5 -39.501 31.5s-27.834 16.5 -42.501 22.5s-29.667 10.5 -45 13.5s-31 4.5 -47 4.5
c-20 0 -39.167 -2.16699 -57.5 -6.5s-35.833 -10.5 -52.5 -18.5c-16.667 -8.66699 -32.334 -19.167 -47.001 -31.5s-28.667 -26.833 -42 -43.5s-25.166 -34.167 -35.499 -52.5s-18.833 -37.5 -25.5 -57.5s-11.667 -40.5 -15 -61.5s-5 -42.833 -5 -65.5
s1.83301 -44.667 5.5 -66s8.83398 -41.666 15.501 -60.999s15.167 -37.833 25.5 -55.5s22.5 -34.5 36.5 -50.5c13.333 -16 27.666 -30 42.999 -42s31.333 -22 48 -30s33.834 -14 51.501 -18s36.5 -6 56.5 -6c11.333 0 22.166 0.833008 32.499 2.5
s20.833 3.83398 31.5 6.50098c3.33301 1.33301 6.83301 2.5 10.5 3.5s7.16699 2.16699 10.5 3.5c7.33301 2.66699 14.5 5.83398 21.5 9.50098s13.833 7.5 20.5 11.5c10 6 19.5 12.5 28.5 19.5s17.833 14.833 26.5 23.5s16.667 17.834 24 27.501s14.333 19.834 21 30.501v2v0
v0zM314 204.979c1.33301 0 2.83398 -0.163086 4.50098 -0.496094s3.16699 -0.5 4.5 -0.5c3.33301 0 6.5 0.333008 9.5 1s5.83301 1.66699 8.5 3c4.66699 2 9 4.5 13 7.5s8 6.5 12 10.5l7.5 7.5c2.33301 2.33301 4.5 4.83301 6.5 7.5c1.33301 1.33301 2.5 2.83301 3.5 4.5
s2.16699 3.16699 3.5 4.5c3.33301 4 6.33301 8.16699 9 12.5l8 13.5c0 0.666992 0.166992 1.33398 0.5 2.00098s0.833008 1.33398 1.5 2.00098c0 0.666992 0.166992 1.33398 0.5 2.00098s0.833008 1.33398 1.5 2.00098v0.5v1.5l0.5 0.5l1.5 1.5v0.5v1.5l0.5 0.5l1.5 1.5v0.5
c0 0.333008 0.333008 0.833008 1 1.5v0.5v1.5c0 0.666992 0.166992 1.5 0.5 2.5s0.833008 1.83301 1.5 2.5v0l1 1v0.5v0.5l0.5 1c0.333008 0.666992 0.833008 1.33398 1.5 2.00098v0.5v1.5v0.5c0 0.333008 0.333008 0.833008 1 1.5v0.5v0.5l2 4l2 4
c0 1.33301 0.333008 2.83301 1 4.5s1.33398 3.16699 2.00098 4.5c1.33301 3.33301 2.5 6.66602 3.5 9.99902s2.16699 6.66602 3.5 9.99902s2.5 6.66602 3.5 9.99902s1.83301 6.66602 2.5 9.99902c1.33301 3.33301 2.5 6.66602 3.5 9.99902s1.83301 6.66602 2.5 9.99902
c0.666992 1.33301 1.16699 2.83301 1.5 4.5s0.5 3.5 0.5 5.5c0 1.33301 0.166992 2.83301 0.5 4.5s0.833008 3.16699 1.5 4.5c1.33301 3.33301 2.16602 6.66602 2.49902 9.99902s0.833008 6.66602 1.5 9.99902c0 3.33301 0.166992 6.5 0.5 9.5s0.833008 5.83301 1.5 8.5v4.5
c0 1.66699 0.333008 3.16699 1 4.5v4.5v4.5c0 4.66699 -0.333008 9.16699 -1 13.5s-1.66699 8.83301 -3 13.5l-6 12c-2 4 -4.33301 8 -7 12c-2.66699 3.33301 -5.83398 6.33301 -9.50098 9s-7.16699 5 -10.5 7c-2.66699 2 -6 3.5 -10 4.5s-8.33301 1.5 -13 1.5
c-8.66699 0 -16.667 -1.16699 -24 -3.5s-14.333 -5.5 -21 -9.5c-7.33301 -4 -14.333 -9 -21 -15s-13 -13 -19 -21l-16 -24.5c-5.33301 -8.33301 -10 -17.166 -14 -26.499c-4.66699 -8.66699 -8.5 -17.834 -11.5 -27.501s-6.16699 -19.167 -9.5 -28.5
c-0.666992 -4 -1.5 -7.83301 -2.5 -11.5s-1.83301 -7.16699 -2.5 -10.5l-2 -11.5l-2 -10.5c-0.666992 -4 -1.16699 -7.83301 -1.5 -11.5s-0.5 -7.16699 -0.5 -10.5c-0.666992 -3.33301 -1 -6.5 -1 -9.5v-9.5c0 -6 0.333008 -11.833 1 -17.5s1.66699 -11.167 3 -16.5
s3.16602 -10.5 5.49902 -15.5s4.83301 -9.83301 7.5 -14.5s5.66699 -8.83398 9 -12.501s7 -6.5 11 -8.5c4.66699 -2.66699 9.33398 -4.5 14.001 -5.5s9.66699 -1.5 15 -1.5v2v0v0z" />
    <glyph glyph-name="A" unicode="A" horiz-adv-x="629" 
d="M9 0l271 739h70l269 -739h-68l-91 248h-292l-91 -248h-68v0v0v0zM192 315h244l-121 339l-123 -339v0v0v0z" />
    <glyph glyph-name="B" unicode="B" horiz-adv-x="487" 
d="M64 0l0.000976562 739.004h147c3.33301 -0.666992 6.5 -1.16699 9.5 -1.5s6.16699 -0.5 9.5 -0.5c2.66699 -0.666992 5.66699 -1.16699 9 -1.5s6.33301 -0.5 9 -0.5c6 -0.666992 12 -1.16699 18 -1.5s12.333 -1.16602 19 -2.49902
c3.33301 -0.666992 6.33301 -1.33398 9 -2.00098s5.66699 -1.33398 9 -2.00098c2.66699 -1.33301 5.5 -2.5 8.5 -3.5s5.83301 -2.16699 8.5 -3.5c6 -2.66699 11.833 -5.66699 17.5 -9s11.167 -7 16.5 -11c5.33301 -4.66699 10.5 -9.5 15.5 -14.5s9.83301 -10.5 14.5 -16.5
l4 -6l4 -6l8.5 -12.5c3 -4.33301 5.5 -8.83301 7.5 -13.5c3.33301 -6.66699 6.16602 -13.834 8.49902 -21.501s4.5 -15.167 6.5 -22.5c1.33301 -7.33301 2.5 -14.833 3.5 -22.5s1.5 -15.5 1.5 -23.5s-0.5 -15.833 -1.5 -23.5s-2.16699 -15.167 -3.5 -22.5l-6 -20
c-2 -6.66699 -4.66699 -13 -8 -19c-0.666992 -1.33301 -1.5 -2.83301 -2.5 -4.5s-1.83301 -3.16699 -2.5 -4.5c-2.66699 -4.66699 -5.33398 -9 -8.00098 -13s-5.66699 -8 -9 -12c-2.66699 -4 -6 -7.83301 -10 -11.5l-11 -10.5
c-1.33301 -1.33301 -2.66602 -2.5 -3.99902 -3.5s-2.66602 -2.16699 -3.99902 -3.5c8 -4 15.667 -8.66699 23 -14s14.333 -11 21 -17c6 -6 11.833 -12.5 17.5 -19.5s10.834 -14.5 15.501 -22.5c4 -8.66699 7.66699 -17.334 11 -26.001s6.33301 -17.667 9 -27
c2 -9.33301 3.66699 -19 5 -29s2 -20.333 2 -31c0 -8.66699 -0.5 -17 -1.5 -25s-2.16699 -16 -3.5 -24c-2 -8 -4.16699 -16 -6.5 -24s-5.16602 -15.667 -8.49902 -23c-3.33301 -8 -7.16602 -15.333 -11.499 -22s-8.83301 -13 -13.5 -19s-9.83398 -11.667 -15.501 -17
l-16.5 -15c-0.666992 0 -1.16699 -0.166992 -1.5 -0.5l-0.5 -0.5l-1.5 -1.5c-0.333008 -0.333008 -0.833008 -0.5 -1.5 -0.5l-1.5 -1.5l-1.5 -1.5c-0.666992 -0.666992 -1.33398 -1.16699 -2.00098 -1.5s-1.33398 -0.5 -2.00098 -0.5
c-0.666992 -0.666992 -1.33398 -1.16699 -2.00098 -1.5s-1.33398 -0.5 -2.00098 -0.5c-2.66699 -2 -5.5 -3.83301 -8.5 -5.5s-6.16699 -3.16699 -9.5 -4.5l-4 -2l-4 -2c-2 -0.666992 -3.66699 -1.16699 -5 -1.5s-2.66602 -0.833008 -3.99902 -1.5
c-2.66699 -0.666992 -5.5 -1.5 -8.5 -2.5s-5.83301 -1.83301 -8.5 -2.5s-5.5 -1.33398 -8.5 -2.00098s-6.16699 -1 -9.5 -1c-2.66699 -0.666992 -5.66699 -1.16699 -9 -1.5s-6.33301 -0.5 -9 -0.5c-3.33301 -0.666992 -6.5 -1 -9.5 -1h-9.5h-9.5h-9.5h-9.5h-9.5h-1.5h-0.5
h-1v0v0v0h-1v0h-1.5h-0.5h-1.5h-0.5h-1v0v0v0h-1v0h-1.5h-0.5h-148v0v0v0zM127.001 67.0039l77.002 0.000976562l1.5 -1.5c0.333008 -0.333008 0.833008 -0.5 1.5 -0.5h1.5h0.5h2h2h1.5h1.5h0.5h1.5h0.5h1.5v0h1v0h1h0.5h1.5h0.5h1.5v0v0h0.5h1.5h3.5h2.5h3.5h3.5h3.5h3.5h3
c1.33301 0 2.66602 0.333008 3.99902 1h6.5h7.5c1.33301 0 2.5 0.166992 3.5 0.5s2.16699 0.5 3.5 0.5l10.5 2l11.5 2c2 0 3.83301 0.333008 5.5 1s3.16699 1 4.5 1c1.33301 0.666992 2.83301 1.33398 4.5 2.00098s3.5 1.33398 5.5 2.00098
c3.33301 1.33301 6.66602 2.83301 9.99902 4.5s6.33301 3.5 9 5.5l7.5 5.5c2.33301 1.66699 4.5 3.5 6.5 5.5l3.5 3.5l3.5 3.5c3.33301 3.33301 6.66602 7.16602 9.99902 11.499s6.33301 8.83301 9 13.5s5.16699 9.5 7.5 14.5l6.5 14.5c1.33301 5.33301 2.5 10.5 3.5 15.5
s1.83301 10.167 2.5 15.5v0.5v1.5v0.5c0 0.333008 0.333008 0.833008 1 1.5v0v1v0.5v1.5v0.5v1.5v0.5v1.5v0v1v0.5v1.5v0v0v0v0v0v0v0v1v0v0v0v0v0v0v0v0v0v0v0v1v0v0v0v0c0 7.33301 -0.5 14.666 -1.5 21.999s-2.16699 14.333 -3.5 21
c-1.33301 7.33301 -3.33301 14.166 -6 20.499s-5.66699 12.5 -9 18.5c-4 6 -8 11.5 -12 16.5s-8.66699 9.83301 -14 14.5c-4.66699 4 -9.66699 7.66699 -15 11s-11 6.33301 -17 9c-2.66699 1.33301 -5.66699 2.5 -9 3.5s-6.66602 1.83301 -9.99902 2.5
c-2 0.666992 -4 1.16699 -6 1.5s-4 0.833008 -6 1.5c-1.33301 0 -2.33301 0.166992 -3 0.5s-1.66699 0.5 -3 0.5h-2.5c-1 0 -1.83301 0.333008 -2.5 1h-3h-3c-1.33301 0 -2.83301 0.166992 -4.5 0.5s-3.16699 0.833008 -4.5 1.5h-2.5h-2.5h-2.5h-2.5h-2.5
c-1 0 -1.83301 0.333008 -2.5 1h-3h-2h-1h-1h-2h-2h-2.5c-1 0 -1.83301 0.333008 -2.5 1h-3.5h-2.5h-2.5h-2.5h-2.5h-2.5h-3h-3h-4.5h-5.5h-1.5h-0.5v0v0h-1v0h-1.5h-0.5h-1.5h-0.5l-66 2v-289v0v0v0zM127.003 423.005l68.001 -0.000976562v-1.5v-0.5h0.5h1.5v0h1v0v0h0.5
h1.5h2h2h2h2h2h2h1h2h4.5h4.5h4h4h3h3h2.5h2.5h2c0.666992 0 1.66699 0.333008 3 1h2.5h3.5c1.33301 0 2.83301 0.166992 4.5 0.5s3.5 0.833008 5.5 1.5h2.5c1 0 1.83301 0.333008 2.5 1c0.666992 0 1.5 0.166992 2.5 0.5s1.83301 0.5 2.5 0.5
c3.33301 0.666992 6.83301 1.5 10.5 2.5s6.83398 2.16699 9.50098 3.5c2 0.666992 3.83301 1.5 5.5 2.5s3.16699 1.83301 4.5 2.5c1.33301 1.33301 2.83301 2.5 4.5 3.5s3.5 1.83301 5.5 2.5c3.33301 2 6.66602 4.33301 9.99902 7s6.33301 5.66699 9 9
c3.33301 3.33301 6.16602 6.83301 8.49902 10.5s4.83301 7.83398 7.5 12.501l6 12.5c2 4.33301 3.66699 8.83301 5 13.5s2.33301 9.5 3 14.5l2 14.5v0.5v1.5v0.5v1.5v0v1v0v0v0.5v1.5v0v0v0.5v1.5v0v0v0.5v1.5v0.5v1.5v0.5v1.5l-2 13.5
c-0.666992 4.33301 -1.66699 8.83301 -3 13.5s-3 9.16699 -5 13.5l-6 13.5l-7.5 13c-2.33301 4 -4.83301 7.66699 -7.5 11s-5.66699 6.5 -9 9.5s-6.66602 5.83301 -9.99902 8.5c-2.66699 1.33301 -5.16699 2.83301 -7.5 4.5s-4.83301 3.16699 -7.5 4.5l-4 2l-4 2
c-2 0 -3.66699 0.333008 -5 1l-4 2c-2.66699 0.666992 -5.5 1.16699 -8.5 1.5s-6.16699 0.833008 -9.5 1.5c-2.66699 0.666992 -5.5 1.16699 -8.5 1.5s-6.16699 0.833008 -9.5 1.5h-2h-2h-1.5c-0.333008 0 -0.5 0.333008 -0.5 1h-2h-1h-1.5h-1.5h-3.5h-3.5h-1.5h-0.5h-1.5
h-1.5h-1.5h-0.5v0v0h-1.5h-0.5h-1.5h-0.5h-1.5h-0.5h-1.5h-1.5c-0.666992 -0.666992 -1.33398 -1 -2.00098 -1h-1h-2h-2h-0.5h-0.5h-0.5h-0.5h-1.5h-1.5l-73 2v-249v0v0v0z" />
    <glyph glyph-name="C" unicode="C" horiz-adv-x="691" 
d="M651 549l-69.0029 0.00292969c-5.33301 9.33301 -11.166 18 -17.499 26s-13.166 15.667 -20.499 23c-6.66699 7.33301 -13.834 14.333 -21.501 21s-16.167 12.667 -25.5 18c-8.66699 5.33301 -17.667 10.333 -27 15s-18.666 8.66699 -27.999 12
c-8.66699 3.33301 -17.834 6.16602 -27.501 8.49902s-19.167 3.83301 -28.5 4.5h-2h-1h-2h-2h-2h-3h-1.5h-1.5h-2c-0.666992 0 -1 0.333008 -1 1h-1.5h-1.5h-1.5h-1.5c-17.333 0 -34.5 -2 -51.5 -6s-33.167 -9.66699 -48.5 -17c-14.667 -8 -29.167 -17.833 -43.5 -29.5
s-28.166 -25.167 -41.499 -40.5c-12.667 -15.333 -24 -31.333 -34 -48s-18 -34 -24 -52c-6.66699 -18 -11.5 -36.667 -14.5 -56s-4.5 -39 -4.5 -59c0 -22 1.5 -43 4.5 -63s7.83301 -39.333 14.5 -58c7.33301 -18.667 16 -36.334 26 -53.001s21.667 -32.667 35 -48
s27.166 -28.833 41.499 -40.5s29.166 -21.167 44.499 -28.5c15.333 -8 31.5 -13.833 48.5 -17.5s34.5 -5.5 52.5 -5.5c10.667 0 21.167 0.833008 31.5 2.5s20.833 3.83398 31.5 6.50098c10 3.33301 20 7.16602 30 11.499s19.667 9.83301 29 16.5c10 6 19.5 12.5 28.5 19.5
s17.167 14.5 24.5 22.5s14.666 16.667 21.999 26s14 19.333 20 30l70 2c-6.66699 -16 -14.334 -31 -23.001 -45s-17.667 -27.333 -27 -40c-10.667 -12.667 -21.667 -24.5 -33 -35.5s-23.666 -21.167 -36.999 -30.5c-12.667 -9.33301 -25.834 -17.5 -39.501 -24.5
s-27.5 -12.833 -41.5 -17.5c-14 -3.33301 -28.167 -6.16602 -42.5 -8.49902s-28.833 -3.5 -43.5 -3.5c-23.333 0 -45.833 2.16699 -67.5 6.5s-42.167 10.833 -61.5 19.5c-19.333 9.33301 -37.833 20.666 -55.5 33.999s-34.5 29.333 -50.5 48s-30 38.334 -42 59.001
s-21.667 42.334 -29 65.001c-8 22.667 -14 46.5 -18 71.5s-6 51.167 -6 78.5c0 26 2 51.167 6 75.5s10 47.833 18 70.5c7.33301 22 17 43.167 29 63.5s26 39.833 42 58.5s32.667 35 50 49s35.666 25.333 54.999 34c19.333 9.33301 39.333 16.333 60 21s42.334 7 65.001 7
c4 0 7.83301 -0.166992 11.5 -0.5s7.5 -0.5 11.5 -0.5c4 -0.666992 7.83301 -1.16699 11.5 -1.5s7.5 -0.833008 11.5 -1.5c8 -0.666992 16 -2 24 -4s16 -4.33301 24 -7l22.5 -8.5c7.66699 -3 14.834 -6.5 21.501 -10.5c7.33301 -4 14.666 -8.33301 21.999 -13
s14.333 -9.66699 21 -15l0.5 -0.5l0.5 -0.5c0 -0.666992 0.166992 -1 0.5 -1s0.833008 -0.333008 1.5 -1c1.33301 -0.666992 2.16602 -1.33398 2.49902 -2.00098s0.833008 -1 1.5 -1l2 -2l2 -2c0.666992 -0.666992 1.33398 -1.16699 2.00098 -1.5
s1.33398 -0.833008 2.00098 -1.5l2 -2l2 -2l2 -2l2 -2l2 -2c0.666992 -0.666992 1.66699 -1 3 -1l2 -2l2 -2l10.5 -10.5c3.66699 -3.66699 6.83398 -7.5 9.50098 -11.5l10.5 -12c3.66699 -4 7.16699 -8.33301 10.5 -13c1.33301 -2.66699 2.83301 -5.16699 4.5 -7.5l4.5 -6.5
c1.33301 -1.33301 2.5 -2.66602 3.5 -3.99902s1.83301 -2.66602 2.5 -3.99902c0.666992 -0.666992 1.16699 -1.33398 1.5 -2.00098s0.833008 -1.33398 1.5 -2.00098l2 -4c0.666992 -1.33301 1.33398 -2.33301 2.00098 -3c0 -1.33301 0.333008 -2.5 1 -3.5
s1.33398 -2.16699 2.00098 -3.5c0.666992 -0.666992 1.16699 -1.33398 1.5 -2.00098s0.5 -1.33398 0.5 -2.00098c0.666992 -0.666992 1 -1.16699 1 -1.5v-0.5c0.666992 -1.33301 1.33398 -2.5 2.00098 -3.5s1 -2.16699 1 -3.5v-1.5v-1.5
c0 -0.666992 0.166992 -1.16699 0.5 -1.5l1.5 -1.5v-0.5c0 -0.333008 0.333008 -0.5 1 -0.5v-1.5v-0.5v-0.5c0 -0.333008 0.333008 -0.5 1 -0.5v-1.5v-0.5v2v0v0z" />
    <glyph glyph-name="D" unicode="D" horiz-adv-x="632" 
d="M64 0l0.00195312 739.002h169c11.333 -0.666992 22.5 -1.66699 33.5 -3l33.5 -4l31.5 -6c10.333 -2 20.833 -4.33301 31.5 -7c7.33301 -2 14.166 -4.33301 20.499 -7s12.833 -5.66699 19.5 -9c3.33301 -1.33301 6.66602 -2.83301 9.99902 -4.5s6.66602 -3.5 9.99902 -5.5
c9.33301 -5.33301 18.833 -11.5 28.5 -18.5s19.167 -14.833 28.5 -23.5s17.833 -17.834 25.5 -27.501s14.834 -19.834 21.501 -30.501c7.33301 -10.667 14.166 -21.667 20.499 -33s11.833 -23.333 16.5 -36c5.33301 -12.667 9.83301 -25.167 13.5 -37.5
s6.83398 -25.166 9.50098 -38.499c1.33301 -6.66699 2.5 -13.334 3.5 -20.001s1.83301 -13 2.5 -19c0.666992 -6.66699 1.16699 -13.334 1.5 -20.001s0.5 -13.334 0.5 -20.001c0 -13.333 -0.666992 -26.5 -2 -39.5s-3 -25.833 -5 -38.5
c-2.66699 -12.667 -5.66699 -25 -9 -37s-7.33301 -24 -12 -36s-9.66699 -23.667 -15 -35s-11 -22 -17 -32c-6.66699 -10.667 -13.5 -20.667 -20.5 -30s-14.5 -18.333 -22.5 -27l-14.5 -14l-14.5 -14c-4.66699 -4 -9.5 -7.83301 -14.5 -11.5l-14.5 -10.5
c-10.667 -6.66699 -21 -12.167 -31 -16.5s-20 -8.16602 -30 -11.499c-10.667 -2.66699 -21.5 -5.16699 -32.5 -7.5s-22.167 -4.16602 -33.5 -5.49902c-7.33301 -0.666992 -14.833 -1.16699 -22.5 -1.5s-15.5 -0.833008 -23.5 -1.5h-11.5h-11.5h-174v0v0v0zM127.002 67.002
l81.001 0.00195312c5.33301 0 10.5 -0.166992 15.5 -0.5s10.167 -0.5 15.5 -0.5c4.66699 0 9.66699 0.166992 15 0.5s10.333 0.833008 15 1.5c10 1.33301 19.833 2.5 29.5 3.5s19.167 2.16699 28.5 3.5s18.5 3.66602 27.5 6.99902s17.833 7.33301 26.5 12
c9.33301 4.66699 18.5 10.167 27.5 16.5s17.833 13.833 26.5 22.5c7.33301 7.33301 14.5 15 21.5 23s13.5 16.333 19.5 25s11.5 17.667 16.5 27s9.5 19.333 13.5 30c4 10 7.5 20.333 10.5 31s5.5 21.334 7.5 32.001c2 11.333 3.66699 22.5 5 33.5s2.33301 22.5 3 34.5
c-0.666992 12 -1.66699 23.667 -3 35s-3 22.333 -5 33c-2 11.333 -4.5 22 -7.5 32s-6.5 20 -10.5 30c-4 9.33301 -8.5 18.666 -13.5 27.999s-10.5 18.333 -16.5 27c-6 9.33301 -12.5 18 -19.5 26s-14.5 15.667 -22.5 23c-8.66699 7.33301 -17.5 14.166 -26.5 20.499
s-18.167 11.833 -27.5 16.5c-2.66699 2 -5.5 3.66699 -8.5 5s-6.16699 2.66602 -9.5 3.99902c-6 2.66699 -11.833 4.83398 -17.5 6.50098s-11.834 3.16699 -18.501 4.5l-28.5 4c-9.66699 1.33301 -19.5 2.33301 -29.5 3c-6 0.666992 -12.5 1.16699 -19.5 1.5
s-13.833 0.833008 -20.5 1.5h-10h-10l-81 2v-605v0v0v0z" />
    <glyph glyph-name="E" unicode="E" horiz-adv-x="455" 
d="M64 0v739h344v-67h-281v-266h271v-67h-271v-272h281v-67h-344v0v0v0z" />
    <glyph glyph-name="F" unicode="F" horiz-adv-x="412" 
d="M64 0v739h319v-67h-256v-267h247v-67h-247v-338h-63v0v0v0z" />
    <glyph glyph-name="G" unicode="G" horiz-adv-x="741" 
d="M279 341l427.003 0.000976562c-2 -26 -5.5 -50.667 -10.5 -74s-12.167 -45.666 -21.5 -66.999c-8.66699 -21.333 -19.334 -41.5 -32.001 -60.5s-27 -36.833 -43 -53.5c-16.667 -16.667 -33.834 -31.334 -51.501 -44.001s-35.834 -23 -54.501 -31
c-18.667 -7.33301 -38 -13 -58 -17s-40.333 -6 -61 -6c-22.667 0 -44.834 2.16699 -66.501 6.5s-42.167 10.833 -61.5 19.5c-19.333 9.33301 -38.166 20.833 -56.499 34.5s-35.833 29.834 -52.5 48.501s-31.167 38.334 -43.5 59.001s-22.833 42.334 -31.5 65.001
c-8.66699 23.333 -15 47.5 -19 72.5s-6 50.833 -6 77.5v0.5v1.5v0.5v1.5v0v1v0v0v0.5v1.5v0v0v0.5v1.5c0 11.333 0.666992 22.833 2 34.5s3.33301 23.5 6 35.5c2 11.333 4.66699 22.833 8 34.5s7.33301 23.167 12 34.5c4 11.333 8.5 22.166 13.5 32.499s10.5 20.5 16.5 30.5
l18.5 27.5c6.33301 9 13.166 17.833 20.499 26.5c8 9.33301 16.333 18.333 25 27s17.667 16.334 27 23.001c9.33301 7.33301 18.833 13.833 28.5 19.5s19.5 10.834 29.5 15.501l10.5 4l10.5 4c6.66699 2.66699 13.5 5.16699 20.5 7.5s14.167 4.16602 21.5 5.49902
c10.667 2 21.667 3.66699 33 5s22.666 2 33.999 2c8 0 16 -0.333008 24 -1s16 -1.66699 24 -3c7.33301 -1.33301 15 -3 23 -5s16.333 -4.33301 25 -7l22.5 -8.5c7.66699 -3 15.167 -6.5 22.5 -10.5s14.666 -8.33301 21.999 -13s14.333 -9.66699 21 -15l1.5 -1.5l1.5 -1.5
l1.5 -1.5c0.333008 -0.333008 0.833008 -0.5 1.5 -0.5c0 -0.666992 0.166992 -1 0.5 -1h1.5c0 -0.666992 0.333008 -1.33398 1 -2.00098l2 -2c1.33301 -0.666992 2.16602 -1.16699 2.49902 -1.5l1.5 -1.5l2 -2l2 -2c0.666992 -0.666992 1.5 -1.33398 2.5 -2.00098
s1.83301 -1 2.5 -1l0.5 -0.5c0.333008 -0.333008 0.5 -0.833008 0.5 -1.5l0.5 -0.5l1.5 -1.5c1.33301 -0.666992 2.16602 -1.33398 2.49902 -2.00098s0.833008 -1.33398 1.5 -2.00098l12 -12.5l12 -13.5c2 -2.66699 4 -5.16699 6 -7.5s4 -4.5 6 -6.5l5.5 -7.5l5.5 -7.5
l10 -16c3.33301 -5.33301 6.33301 -10.666 9 -15.999c1.33301 -2.66699 2.5 -5.33398 3.5 -8.00098s2.16699 -5 3.5 -7c0.666992 -2.66699 1.66699 -5.33398 3 -8.00098s2.33301 -5.33398 3 -8.00098l-72 2c-4.66699 9.33301 -10.167 18.5 -16.5 27.5
s-13.166 17.5 -20.499 25.5s-15.166 15.5 -23.499 22.5s-17.166 13.5 -26.499 19.5c-4.66699 3.33301 -9.5 6.16602 -14.5 8.49902s-9.83301 4.83301 -14.5 7.5l-14.5 6l-14.5 6c-3.33301 1.33301 -6.66602 2.33301 -9.99902 3l-10 2c-6.66699 2 -13.167 3.5 -19.5 4.5
s-13.166 1.83301 -20.499 2.5h-0.5h-1.5h-1.5c-0.333008 0 -0.5 0.333008 -0.5 1h-1.5h-0.5h-1.5h-1.5h-1.5h-0.5h-1.5h-1.5h-2h-1h-1.5h-1.5h-1.5h-1.5h-0.5h-1.5h-1.5h-1.5c-8 -0.666992 -16 -1.5 -24 -2.5s-15.667 -2.5 -23 -4.5c-8 -2 -16 -4.33301 -24 -7
s-15.667 -5.66699 -23 -9c-2 -0.666992 -4 -1.5 -6 -2.5l-5 -2.5l-17.5 -9.5c-5.66699 -3 -10.834 -6.5 -15.501 -10.5c-6.66699 -4.66699 -13.334 -10 -20.001 -16s-12.667 -12.333 -18 -19c-6.66699 -6.66699 -12.667 -14 -18 -22l-16 -24
c-5.33301 -8 -10.333 -16.5 -15 -25.5s-9 -18.167 -13 -27.5s-7.5 -18.833 -10.5 -28.5s-5.5 -19.5 -7.5 -29.5c-2.66699 -10 -4.5 -20 -5.5 -30s-1.5 -20 -1.5 -30v-1.5v-0.5v-1.5v-0.5v-1.5v-0.5v-1.5v-0.5c0 -22.667 1.66699 -44.167 5 -64.5s8.33301 -40.166 15 -59.499
c7.33301 -18.667 16 -36.334 26 -53.001s21.667 -32.667 35 -48c14 -14.667 28.333 -27.667 43 -39s30.334 -20.666 47.001 -27.999c16 -7.33301 32.833 -12.833 50.5 -16.5s35.834 -5.5 54.501 -5.5c14 0 27.833 1.16699 41.5 3.5s27.167 5.83301 40.5 10.5
c4 2 8.16699 3.83301 12.5 5.5s8.5 3.83398 12.5 6.50098c8.66699 4 17.167 8.83301 25.5 14.5s16.5 11.834 24.5 18.501c12 10 23.167 20.833 33.5 32.5s19.5 23.834 27.5 36.501c8 13.333 15 27.166 21 41.499s11 29.833 15 46.5l-351 2v67v0v0v0z" />
    <glyph glyph-name="H" unicode="H" horiz-adv-x="580" 
d="M64 0v739h63v-325h326v325h62v-739h-62v347h-326v-347h-63v0v0v0z" />
    <glyph glyph-name="I" unicode="I" horiz-adv-x="192" 
d="M64 0v739h63v-739h-63v0v0v0z" />
    <glyph glyph-name="J" unicode="J" horiz-adv-x="409" 
d="M345 739v-530.995v-2.5v-2.5v-1.5v-1.5c-0.666992 -0.666992 -1 -1.16699 -1 -1.5v-1.5v-1.5v-1.5v-2.5v-3.5v-2.5v-3.5c-0.666992 -2 -1.16699 -4 -1.5 -6s-0.5 -4 -0.5 -6v-6v-5c-0.666992 -2 -1.16699 -4 -1.5 -6s-0.5 -4 -0.5 -6v-5.5v-4.5
c-0.666992 -2 -1.16699 -3.83301 -1.5 -5.5s-0.5 -3.16699 -0.5 -4.5c-0.666992 -2 -1.16699 -3.83301 -1.5 -5.5s-0.5 -3.16699 -0.5 -4.5c-0.666992 -2 -1.16699 -4 -1.5 -6s-0.5 -3.66699 -0.5 -5c-0.666992 -2 -1.16699 -3.83301 -1.5 -5.5
s-0.833008 -3.16699 -1.5 -4.5c0 -0.666992 -0.166992 -1.16699 -0.5 -1.5l-0.5 -0.5l-1.5 -1.5c-0.333008 -0.333008 -0.5 -0.833008 -0.5 -1.5v-1.5v-0.5c-0.666992 -0.666992 -1 -1.16699 -1 -1.5v-0.5c-0.666992 -0.666992 -1.33398 -1.5 -2.00098 -2.5
s-1 -2.16699 -1 -3.5c0 -0.666992 -0.166992 -1.16699 -0.5 -1.5l-0.5 -0.5c0 -0.666992 -0.166992 -1.16699 -0.5 -1.5l-0.5 -0.5c0 -0.666992 -0.166992 -1.16699 -0.5 -1.5l-0.5 -0.5l-1.5 -1.5c-0.333008 -0.333008 -0.5 -0.833008 -0.5 -1.5
c-0.666992 -0.666992 -1.16699 -1.33398 -1.5 -2.00098s-0.5 -1.33398 -0.5 -2.00098c-0.666992 -0.666992 -1.33398 -1.5 -2.00098 -2.5s-1.33398 -2.16699 -2.00098 -3.5c-0.666992 -0.666992 -1.16699 -1.33398 -1.5 -2.00098s-0.5 -1.33398 -0.5 -2.00098
c-4.66699 -6.66699 -9.16699 -12.667 -13.5 -18s-9.16602 -10.333 -14.499 -15c-2 -1.33301 -3.83301 -2.66602 -5.5 -3.99902s-3.5 -2.66602 -5.5 -3.99902c-3.33301 -2.66699 -6.83301 -5.16699 -10.5 -7.5s-7.5 -4.5 -11.5 -6.5c-6 -2 -12 -3.83301 -18 -5.5
s-12 -3.16699 -18 -4.5s-12.167 -2.5 -18.5 -3.5s-12.833 -1.5 -19.5 -1.5c-11.333 0 -22.333 1.16699 -33 3.5s-20.667 5.16602 -30 8.49902c-10 3.33301 -19.5 8.5 -28.5 15.5s-17.5 14.833 -25.5 23.5c-8 9.33301 -15 19 -21 29s-11.333 20.333 -16 31
c-4 11.333 -7.16699 23.166 -9.5 35.499s-3.5 25.166 -3.5 38.499l62 2c0.666992 -9.33301 1.83398 -18 3.50098 -26s3.83398 -15.667 6.50098 -23c2.66699 -6.66699 6.16699 -13.334 10.5 -20.001s9.16602 -12.667 14.499 -18s10.833 -10 16.5 -14
s11.834 -7.33301 18.501 -10c6 -2.66699 12.5 -4.66699 19.5 -6s14.167 -2 21.5 -2c5.33301 0 10.333 0.333008 15 1s9.33398 2 14.001 4c5.33301 1.33301 10.166 3.33301 14.499 6s8.5 5.66699 12.5 9s7.83301 6.83301 11.5 10.5s6.83398 7.83398 9.50098 12.501
c3.33301 4.66699 6.16602 9.5 8.49902 14.5s4.5 10.5 6.5 16.5c0.666992 2 1.16699 4 1.5 6s0.833008 4 1.5 6c0 2 0.166992 4.16699 0.5 6.5s0.833008 4.83301 1.5 7.5v3.5c0 1 0.333008 2.16699 1 3.5v3v4c0 2.66699 0.166992 5.16699 0.5 7.5s0.833008 4.83301 1.5 7.5
v4.5v4.5v4.5v4.5v2v2v2.5v2.5v2v2v2v2v0.5v1.5v0.5v1.5v0.5v1.5v0.5v1.5v511h63v0v0v0z" />
    <glyph glyph-name="K" unicode="K" horiz-adv-x="502" 
d="M64 0v739h63v-425l290 425h80l-248 -360l248 -379h-78l-210 320l-82 -118v-202h-63v0v0v0z" />
    <glyph glyph-name="L" unicode="L" horiz-adv-x="392" 
d="M64 0v739h63v-672h260v-67h-323v0v0v0z" />
    <glyph glyph-name="M" unicode="M" horiz-adv-x="781" 
d="M64 0v739h97l230 -629l228 629h97v-739h-63v657l-236 -657h-54l-236 657v-657h-63v0v0v0z" />
    <glyph glyph-name="N" unicode="N" horiz-adv-x="629" 
d="M64 0v739h85l352 -613v613h63v-739h-63l-374 650v-650h-63v0v0v0z" />
    <glyph glyph-name="O" unicode="O" horiz-adv-x="738" 
d="M368 751c22.667 -0.666992 44.332 -3.49902 64.999 -8.49902s40.667 -12.167 60 -21.5c19.333 -8.66699 38 -20 56 -34s35.333 -30 52 -48c16.667 -18.667 31.167 -38.167 43.5 -58.5s22.833 -41.5 31.5 -63.5c8 -22.667 14.167 -46.167 18.5 -70.5
s6.5 -49.833 6.5 -76.5s-2.16699 -52.5 -6.5 -77.5s-10.5 -48.833 -18.5 -71.5c-8.66699 -22.667 -19 -44.334 -31 -65.001s-26 -40.334 -42 -59.001c-16.667 -18.667 -34 -34.834 -52 -48.501s-36.667 -25.167 -56 -34.5c-19.333 -8.66699 -39.666 -15.167 -60.999 -19.5
s-43.333 -6.5 -66 -6.5c-22 0 -43.333 2 -64 6s-40.667 10.333 -60 19c-19.333 9.33301 -37.833 20.666 -55.5 33.999s-35.167 29.333 -52.5 48c-16.667 18 -31 37.167 -43 57.5s-22.333 41.833 -31 64.5s-15 46.167 -19 70.5s-6 49.833 -6 76.5s2 52.334 6 77.001
s10 48.334 18 71.001c8 23.333 18.167 45.333 30.5 66s26.833 40.334 43.5 59.001c16 18.667 33 35 51 49s36.667 25.667 56 35s39.5 16.333 60.5 21s42.833 7 65.5 7v2v0v0zM368.998 58.001c18.667 -0.666992 36.4971 0.666016 53.4971 3.99902s33.5 8.66602 49.5 15.999
s31.167 16.833 45.5 28.5s28.166 25.167 41.499 40.5s24.833 31.333 34.5 48s17.834 34.334 24.501 53.001s11.667 38.167 15 58.5s5 41.5 5 63.5c0 21.333 -1.66699 41.833 -5 61.5s-8.66602 38.5 -15.999 56.5c-6.66699 18 -15 35.5 -25 52.5s-21.667 32.833 -35 47.5
c-13.333 15.333 -27.333 28.5 -42 39.5s-29.667 20.167 -45 27.5c-16 7.33301 -32.333 13 -49 17s-34 6 -52 6c-18.667 0 -36.667 -2 -54 -6s-33.666 -9.66699 -48.999 -17c-16.667 -8 -32.167 -17.667 -46.5 -29s-28.166 -24.666 -41.499 -39.999
c-12.667 -15.333 -24 -31.5 -34 -48.5s-18.333 -34.833 -25 -53.5s-11.5 -38 -14.5 -58s-4.5 -40.667 -4.5 -62s1.5 -42 4.5 -62s7.83301 -39 14.5 -57c7.33301 -18 16 -35.167 26 -51.5s22 -32.166 36 -47.499c13.333 -14.667 27.333 -27.834 42 -39.501
s29.667 -21.167 45 -28.5c16 -7.33301 32.5 -12.833 49.5 -16.5s34.167 -5.5 51.5 -5.5v2v0v0z" />
    <glyph glyph-name="P" unicode="P" horiz-adv-x="503" 
d="M64 0l0.00195312 739.001h165c3.33301 -0.666992 6.83301 -1.16699 10.5 -1.5s7.5 -0.5 11.5 -0.5c3.33301 -0.666992 6.83301 -1.16699 10.5 -1.5s7.16699 -0.5 10.5 -0.5c4 -0.666992 7.83301 -1.16699 11.5 -1.5s7.16699 -0.5 10.5 -0.5
c3.33301 -0.666992 6.83301 -1.16699 10.5 -1.5s7.5 -0.5 11.5 -0.5c2.66699 0 5.16699 -0.333008 7.5 -1s4.5 -1.33398 6.5 -2.00098c4.66699 -0.666992 9.5 -1.83398 14.5 -3.50098s9.5 -3.5 13.5 -5.5c7.33301 -2.66699 14.166 -5.83398 20.499 -9.50098
s12.5 -7.83398 18.5 -12.501c7.33301 -4.66699 14 -10 20 -16s11.333 -12.333 16 -19c5.33301 -6.66699 10.166 -13.5 14.499 -20.5s8.16602 -14.5 11.499 -22.5s6.16602 -16.167 8.49902 -24.5s4.5 -16.833 6.5 -25.5l4 -26.5c1.33301 -9 2 -18.167 2 -27.5
c0 -8.66699 -0.333008 -17 -1 -25s-1.66699 -16 -3 -24l-6 -24c-2 -8 -4.66699 -15.667 -8 -23c-2.66699 -7.33301 -6 -14.5 -10 -21.5s-8 -13.5 -12 -19.5c-4.66699 -6.66699 -9.66699 -12.667 -15 -18s-11 -10.666 -17 -15.999s-12.167 -10.166 -18.5 -14.499
s-12.833 -8.16602 -19.5 -11.499l-19.5 -8c-6.33301 -2.66699 -13.166 -4.66699 -20.499 -6l-10 -2l-10 -2c-4 0 -7.66699 -0.333008 -11 -1s-6.66602 -1 -9.99902 -1c-4 -0.666992 -7.83301 -1.16699 -11.5 -1.5s-7.16699 -0.5 -10.5 -0.5h-10.5h-11.5l-118 2v-298h-63v0v0
v0zM127.002 365.001h108.005c1.33301 0 2.66602 -0.166992 3.99902 -0.5s2.66602 -0.5 3.99902 -0.5h4h4h8.5h8.5h7.5c2.33301 0 4.83301 0.333008 7.5 1h4c1.33301 0 3 0.333008 5 1c1.33301 0 2.66602 0.166992 3.99902 0.5s2.66602 0.5 3.99902 0.5
c5.33301 0.666992 10.833 1.66699 16.5 3s10.834 3.33301 15.501 6c2 0.666992 3.66699 1.33398 5 2.00098s3 1.66699 5 3c3.33301 1.33301 6.66602 3.16602 9.99902 5.49902s6.66602 4.5 9.99902 6.5l11.5 10c3.66699 3.33301 7.16699 7 10.5 11
c2.66699 2.66699 4.83398 5.5 6.50098 8.5l5.5 9.5c1.33301 2 2.5 3.83301 3.5 5.5s1.83301 3.5 2.5 5.5c2 5.33301 3.83301 10.666 5.5 15.999s3.16699 10.666 4.5 15.999s2.33301 11 3 17l2 18v0v1v0.5v1.5v0v1v0v0v0.5v1.5c0 8 -0.5 15.833 -1.5 23.5
s-2.16699 14.834 -3.5 21.501c-2 7.33301 -4.33301 14.166 -7 20.499s-5.66699 12.5 -9 18.5c-2.66699 6 -6.16699 11.5 -10.5 16.5s-8.83301 9.83301 -13.5 14.5s-9.83398 9 -15.501 13s-11.5 7.33301 -17.5 10c-0.666992 0 -1.5 0.166992 -2.5 0.5
s-1.83301 0.833008 -2.5 1.5c-1.33301 0 -2.33301 0.166992 -3 0.5l-3 1.5c-1.33301 0.666992 -2.83301 1.33398 -4.5 2.00098s-3.16699 1.33398 -4.5 2.00098c-0.666992 0 -1.5 0.166992 -2.5 0.5s-1.83301 0.833008 -2.5 1.5c-0.666992 0 -1.5 0.166992 -2.5 0.5
s-1.83301 0.5 -2.5 0.5h-2.5c-1 0 -1.83301 0.333008 -2.5 1c-0.666992 0 -1.5 0.166992 -2.5 0.5s-1.83301 0.5 -2.5 0.5h-2.5c-1 0 -1.83301 0.333008 -2.5 1h-3h-2h-2.5c-1 0 -1.83301 0.333008 -2.5 1h-3h-3h-2.5c-1 0 -1.83301 0.333008 -2.5 1h-3h-3h-2.5h-2.5h-2.5
h-2.5h-1.5h-0.5h-0.5h-0.5h-2h-2h-0.5h-1.5h-1.5h-0.5h-2h-1h-3.5h-3.5h-3.5h-3.5h-1.5h-1.5h-1.5h-0.5h-2h-1h-1.5h-1.5h-1.5h-0.5h-1.5h-1.5h-2.5h-2.5l-81 2v-307v0v0v0z" />
    <glyph glyph-name="Q" unicode="Q" horiz-adv-x="740" 
d="M702 56l0.00292969 -69.0039h-7l-19.5 2c-6.33301 0.666992 -12.5 1.66699 -18.5 3c-2.66699 0.666992 -5.5 1.33398 -8.5 2.00098s-5.83301 1.33398 -8.5 2.00098c-2.66699 1.33301 -5.5 2.33301 -8.5 3s-5.83301 1.33398 -8.5 2.00098
c-5.33301 2.66699 -10.5 5.5 -15.5 8.5s-10.167 6.5 -15.5 10.5l-14.5 13l-15.5 15c-4.66699 -4 -9.5 -7.66699 -14.5 -11l-15.5 -10l-15.5 -8.5c-5.66699 -3 -11.167 -5.5 -16.5 -7.5c-5.33301 -2.66699 -10.833 -4.83398 -16.5 -6.50098s-11.5 -3.16699 -17.5 -4.5
c-6 -0.666992 -11.833 -1.66699 -17.5 -3l-16.5 -4h-2h-1h-2h-2c-1.33301 0 -2.66602 -0.166992 -3.99902 -0.5s-2.33301 -0.833008 -3 -1.5h-4.5h-3.5h-2c-0.666992 0 -1.33398 -0.333008 -2.00098 -1h-2h-2h-4c-1.33301 0 -2.33301 -0.333008 -3 -1h-4h-4h-3.5
c-1 0 -2.16699 -0.333008 -3.5 -1h-2.5h-3.5c-22.667 0 -44.5 2 -65.5 6s-41.167 10.333 -60.5 19s-38.166 19.667 -56.499 33s-36.166 29 -53.499 47c-16.667 18 -31.334 37 -44.001 57s-23.334 41.333 -32.001 64c-8.66699 22 -15 45.5 -19 70.5s-6 50.833 -6 77.5
c0 28 2 54.833 6 80.5s10.333 49.834 19 72.501c8 23.333 18.167 45.333 30.5 66s26.833 40.334 43.5 59.001c16 18 33 33.833 51 47.5s37 24.834 57 33.501c20 9.33301 41 16.333 63 21s44.667 7 68 7s45.833 -2.33301 67.5 -7s42.5 -11.667 62.5 -21
c20 -8.66699 39.167 -20 57.5 -34s35.833 -30 52.5 -48c16 -18.667 30 -38.334 42 -59.001s22.333 -42.667 31 -66c8 -22.667 14.167 -47 18.5 -73s6.5 -53 6.5 -81c0 -12.667 -0.666992 -25.5 -2 -38.5s-3.33301 -25.5 -6 -37.5c-2.66699 -12.667 -5.66699 -25 -9 -37
s-7.33301 -23.667 -12 -35c-4.66699 -12 -9.83398 -23.5 -15.501 -34.5s-11.5 -21.5 -17.5 -31.5c-6.66699 -10.667 -13.667 -20.667 -21 -30s-15 -18.333 -23 -27l9.5 -7.5c3 -2.33301 6.16699 -4.5 9.5 -6.5c3.33301 -2.66699 6.66602 -5 9.99902 -7
s6.66602 -3.66699 9.99902 -5c3.33301 -2 6.83301 -3.5 10.5 -4.5s7.16699 -2.16699 10.5 -3.5c3.33301 -0.666992 6.83301 -1.16699 10.5 -1.5s7.5 -0.5 11.5 -0.5l13 3v0v0v0zM514.003 101.996l-32.9941 30.0029c-0.666992 0 -1.33398 0.166992 -2.00098 0.5
s-1.33398 0.833008 -2.00098 1.5s-1.33398 1.16699 -2.00098 1.5s-1.33398 0.833008 -2.00098 1.5s-1.33398 1.16699 -2.00098 1.5s-1.33398 0.833008 -2.00098 1.5l-2 2l-2 2l-1.5 1.5c-0.333008 0.333008 -1.16602 0.833008 -2.49902 1.5l-1.5 1.5l-0.5 0.5
c0 0.666992 -0.166992 1.16699 -0.5 1.5l-0.5 0.5h-1.5c-0.333008 0 -0.5 0.333008 -0.5 1c-0.666992 0 -1.16699 0.166992 -1.5 0.5l-1.5 1.5l-1.5 1.5l-1.5 1.5c-2.66699 2.66699 -5.5 5.16699 -8.5 7.5s-6.16699 4.5 -9.5 6.5c-1.33301 1.33301 -2.83301 2.5 -4.5 3.5
s-3.16699 2.16699 -4.5 3.5c-1.33301 0.666992 -2.83301 1.66699 -4.5 3s-3.16699 2.33301 -4.5 3c-2.66699 2 -5.5 4 -8.5 6s-6.16699 4 -9.5 6c-2 1.33301 -3.83301 2.33301 -5.5 3s-3.5 1.33398 -5.5 2.00098c-2 1.33301 -3.83301 2.33301 -5.5 3
s-3.5 1.33398 -5.5 2.00098c-1.33301 0.666992 -2.83301 1.33398 -4.5 2.00098s-3.5 1.33398 -5.5 2.00098h-2c-0.666992 0 -1.33398 0.333008 -2.00098 1c-1.33301 0 -2.5 0.333008 -3.5 1s-2.16699 1 -3.5 1c-2 0.666992 -3.83301 1.33398 -5.5 2.00098
s-3.16699 1.33398 -4.5 2.00098c-2 0 -3.83301 0.333008 -5.5 1s-3.5 1.33398 -5.5 2.00098c-4 1.33301 -7.83301 2.5 -11.5 3.5s-7.16699 1.83301 -10.5 2.5c-4 1.33301 -7.83301 2.16602 -11.5 2.49902s-7.16699 0.833008 -10.5 1.5
c-2.66699 0.666992 -5.16699 1.16699 -7.5 1.5s-4.83301 0.5 -7.5 0.5s-5 0.166992 -7 0.5s-4 0.833008 -6 1.5h-3.5h-3.5h-3.5c-1 0 -2.16699 0.333008 -3.5 1h-3.5h-3.5h-2h-1h-2h-2h-6c-2 0 -4 -0.333008 -6 -1c-2.66699 0 -5 -0.166992 -7 -0.5s-4 -0.5 -6 -0.5
c-2.66699 0 -5.33398 -0.166992 -8.00098 -0.5s-5.33398 -0.833008 -8.00098 -1.5c-1.33301 0 -2.66602 -0.166992 -3.99902 -0.5s-2.66602 -0.5 -3.99902 -0.5l-6 -2c-2 -0.666992 -4 -1 -6 -1c-2.66699 -0.666992 -5 -1.33398 -7 -2.00098l-6 -2
c-2 -0.666992 -3.83301 -1.33398 -5.5 -2.00098s-3.5 -1.33398 -5.5 -2.00098c-2 -1.33301 -3.83301 -2.33301 -5.5 -3s-3.5 -1.33398 -5.5 -2.00098c1.33301 -4 2.83301 -8 4.5 -12s3.83398 -8 6.50098 -12l4 -6c1.33301 -2 3 -4 5 -6l4 -6l4 -6c3.33301 -4 6.5 -8 9.5 -12
s6.16699 -7.66699 9.5 -11s6.66602 -6.5 9.99902 -9.5s6.66602 -6.16699 9.99902 -9.5c0 -0.666992 0.166992 -1.16699 0.5 -1.5s0.833008 -0.5 1.5 -0.5l1.5 -1.5l1.5 -1.5c0.666992 -0.666992 1.5 -1.33398 2.5 -2.00098s1.83301 -1.33398 2.5 -2.00098l1.5 -1.5
c0.333008 -0.333008 0.833008 -0.5 1.5 -0.5c0 -0.666992 0.166992 -1.16699 0.5 -1.5s0.833008 -0.5 1.5 -0.5l1.5 -1.5c0.333008 -0.333008 0.833008 -0.5 1.5 -0.5c0 -0.666992 0.166992 -1.16699 0.5 -1.5s0.833008 -0.5 1.5 -0.5c6 -4.66699 12 -9 18 -13
s12.333 -7.66699 19 -11c6 -3.33301 12.167 -6.33301 18.5 -9s12.833 -5 19.5 -7c2 -0.666992 4.16699 -1.33398 6.5 -2.00098s4.5 -1.33398 6.5 -2.00098c4 -0.666992 8.16699 -1.5 12.5 -2.5s8.83301 -1.83301 13.5 -2.5c2.66699 0 5 -0.166992 7 -0.5
s4.33301 -0.5 7 -0.5c4.66699 -0.666992 9.33398 -1 14.001 -1h14h4.5h6.5h5c2 0 4.33301 0.333008 7 1h5c2 0 4 0.333008 6 1s4 1.16699 6 1.5s4 0.833008 6 1.5c2 0 4 0.166992 6 0.5s4 0.833008 6 1.5c2 0 4 0.333008 6 1l6 2c1.33301 0 2.33301 0.166992 3 0.5l3 1.5
c0.666992 0 1.5 0.166992 2.5 0.5s1.83301 0.833008 2.5 1.5c2 0.666992 4 1.5 6 2.5s4 1.83301 6 2.5c4 1.33301 7.83301 3 11.5 5l10.5 6c2 1.33301 3.83301 2.5 5.5 3.5s3.16699 2.16699 4.5 3.5c1.33301 0.666992 2.83301 1.66699 4.5 3s3.5 2.66602 5.5 3.99902v2v0v0z
M110.009 278.999c1.33301 0.666992 2.66602 1.16406 3.99902 1.49707s2.66602 0.5 3.99902 0.5c0.666992 0.666992 1.33398 1 2.00098 1s1.33398 0.333008 2.00098 1c2 0 4 0.333008 6 1l6 2l6 2c2 0.666992 4.33301 1.33398 7 2.00098c2 0 4 0.333008 6 1l6 2
c2 0.666992 4.16699 1.16699 6.5 1.5s4.5 0.833008 6.5 1.5c2 0 4.16699 0.166992 6.5 0.5s4.5 0.833008 6.5 1.5s4 1.16699 6 1.5s4.33301 0.5 7 0.5c2 0.666992 4 1.16699 6 1.5s4 0.5 6 0.5h2h2h2.5c1 0 1.83301 0.333008 2.5 1h1.5h1.5h3h2h2h2h2.5
c1 0 1.83301 0.333008 2.5 1h1.5h1.5h3h2c14.667 0 29 -0.666992 43 -2s27.667 -3.66602 41 -6.99902c12.667 -2.66699 25.167 -6.33398 37.5 -11.001s24.166 -9.66699 35.499 -15c5.33301 -2.66699 10.833 -5.66699 16.5 -9l17.5 -10
c5.33301 -4 10.833 -7.83301 16.5 -11.5s11.167 -7.5 16.5 -11.5c11.333 -8 22.166 -16.667 32.499 -26l31.5 -29c1.33301 -1.33301 2.83301 -2.66602 4.5 -3.99902s2.83398 -2.66602 3.50098 -3.99902l2 -2l2 -2l2 -2l2 -2l0.5 -0.5
c0.333008 -0.333008 0.5 -0.833008 0.5 -1.5l0.5 -0.5l1.5 -1.5c1.33301 -0.666992 2.33301 -1.33398 3 -2.00098l2 -2l2 -2l2 -2l2 -2l2 -2c6.66699 7.33301 13 14.666 19 21.999s11.333 15.333 16 24c3.33301 5.33301 6.5 10.833 9.5 16.5s5.83301 11.834 8.5 18.501
l4.5 9c1.66699 3.33301 3.16699 6.66602 4.5 9.99902c4 9.33301 7.5 19 10.5 29s5.5 20 7.5 30l4 30.5c1.33301 10.333 2 20.833 2 31.5c0 22.667 -1.66699 44.334 -5 65.001s-8.66602 40.334 -15.999 59.001c-6.66699 19.333 -15 37.5 -25 54.5s-21.667 32.833 -35 47.5
c-13.333 15.333 -27.333 28.5 -42 39.5s-30 20.5 -46 28.5c-16.667 7.33301 -33.834 13 -51.501 17s-36.167 6 -55.5 6c-18.667 0 -36.834 -2 -54.501 -6s-34.5 -9.66699 -50.5 -17c-16 -8 -31.5 -17.5 -46.5 -28.5s-29.167 -24.167 -42.5 -39.5
s-25.166 -31.5 -35.499 -48.5s-18.833 -34.833 -25.5 -53.5s-11.667 -38.334 -15 -59.001s-4.66602 -42.334 -3.99902 -65.001v-1.5v-0.5v0v0v-1.5v-0.5v0v0v-1v0v-1.5v-0.5v-1.5v-0.5v-10c0 -3.33301 0.333008 -6.66602 1 -9.99902v-4.5
c0 -1.66699 0.333008 -3.16699 1 -4.5v-4.5v-4.5c0 -1.33301 0.166992 -2.83301 0.5 -4.5s0.833008 -3.16699 1.5 -4.5c0 -2 0.166992 -3.66699 0.5 -5s0.833008 -2.66602 1.5 -3.99902v-2.5c0 -1 0.333008 -1.83301 1 -2.5v-3v-2
c0.666992 -1.33301 1.16699 -2.83301 1.5 -4.5s0.833008 -3.16699 1.5 -4.5v2v0v0z" />
    <glyph glyph-name="R" unicode="R" horiz-adv-x="515" 
d="M64 0l0.000976562 738.996h150c2.66699 -0.666992 5.16699 -1.16699 7.5 -1.5s4.83301 -0.5 7.5 -0.5h7.5h7.5h4h4c1.33301 -0.666992 2.66602 -1 3.99902 -1h4h4h4c0.666992 -0.666992 1.66699 -1 3 -1h4c2.66699 -0.666992 5.16699 -1.16699 7.5 -1.5
s4.83301 -0.5 7.5 -0.5c2.66699 -0.666992 5.33398 -1.16699 8.00098 -1.5s5.33398 -0.5 8.00098 -0.5c2 -0.666992 4.16699 -1.16699 6.5 -1.5s4.83301 -0.5 7.5 -0.5c2.66699 -0.666992 5.16699 -1.16699 7.5 -1.5s4.83301 -0.833008 7.5 -1.5
c5.33301 -1.33301 10.333 -2.83301 15 -4.5s9.33398 -3.5 14.001 -5.5c5.33301 -2 10.166 -4.16699 14.499 -6.5s8.83301 -5.16602 13.5 -8.49902c8 -5.33301 15.5 -11.166 22.5 -17.499s13.5 -13.166 19.5 -20.499c6 -6.66699 11.5 -14 16.5 -22s9.5 -16.667 13.5 -26
c4.66699 -8.66699 8.5 -17.834 11.5 -27.501s5.5 -19.5 7.5 -29.5s3.66699 -20.167 5 -30.5s2 -20.833 2 -31.5c0 -15.333 -1.16699 -30 -3.5 -44s-5.83301 -27.667 -10.5 -41c-4.66699 -12.667 -10.334 -25 -17.001 -37s-14.334 -23.333 -23.001 -34
c-9.33301 -10.667 -19 -20.167 -29 -28.5s-20.667 -15.166 -32 -20.499c-10.667 -5.33301 -21.834 -9.5 -33.501 -12.5s-23.834 -4.5 -36.501 -4.5l176 -274h-78l-213 335h19c0 -0.666992 0.166992 -1.16699 0.5 -1.5s0.833008 -0.5 1.5 -0.5h1.5h1.5h0.5h0.5h0.5h0.5h1.5
h1.5h5h7h5h7h5h7h6c2 0 4 0.333008 6 1h5.5h4.5h3c0.666992 0 1.66699 0.333008 3 1h2.5h2.5c0.666992 0 1.5 0.166992 2.5 0.5s2.16699 0.5 3.5 0.5c0.666992 0 1.16699 0.166992 1.5 0.5s0.833008 0.5 1.5 0.5h2.5c1 0 1.83301 0.333008 2.5 1
c0.666992 0 1.5 0.166992 2.5 0.5s1.83301 0.5 2.5 0.5c2 0 3.83301 0.166992 5.5 0.5s3.16699 0.833008 4.5 1.5s2.83301 1.16699 4.5 1.5s3.5 0.833008 5.5 1.5c3.33301 1.33301 6.5 2.66602 9.5 3.99902s5.83301 3 8.5 5c6.66699 3.33301 12.834 7.33301 18.501 12
s10.834 9.33398 15.501 14.001c5.33301 5.33301 10.166 10.833 14.499 16.5s8.5 11.834 12.5 18.501c3.33301 6.66699 6.33301 13.5 9 20.5s4.66699 14.167 6 21.5c2 7.33301 3.5 14.833 4.5 22.5s1.5 15.834 1.5 24.501v0v1v0v0v0.5v1.5v0v1v0v0v0.5v1.5l-2 18
c-0.666992 6 -2 12 -4 18c-0.666992 3.33301 -1.5 6.33301 -2.5 9s-1.83301 5.66699 -2.5 9c-1.33301 2.66699 -2.5 5.5 -3.5 8.5s-2.16699 5.83301 -3.5 8.5c-2.66699 5.33301 -5.5 10.666 -8.5 15.999s-6.16699 10.333 -9.5 15c-2.66699 4.66699 -6 9 -10 13
s-8.33301 7.66699 -13 11l-13.5 9.5c-4.33301 3 -9.16602 5.83301 -14.499 8.5l-14 6c-4.66699 2 -9.66699 3.33301 -15 4c-2.66699 0.666992 -5.16699 1.16699 -7.5 1.5s-4.83301 0.833008 -7.5 1.5c-2.66699 0 -5.16699 0.166992 -7.5 0.5s-4.83301 0.833008 -7.5 1.5h-8
c-2.66699 0 -5.33398 0.333008 -8.00098 1h-4c-1.33301 0 -2.66602 0.333008 -3.99902 1h-4h-4h-1h-1h-2h-2h-2.5h-2.5h-1.5h-1.5h-2h-1h-1.5h-1.5h-1.5h-1.5l-99 2v-672h-63v0v0v0z" />
    <glyph glyph-name="S" unicode="S" horiz-adv-x="423" 
d="M18 207l67.0068 -0.000976562c0 -10.667 1 -20.834 3 -30.501s4.66699 -19.167 8 -28.5c3.33301 -8.66699 7.16602 -17 11.499 -25s9.5 -15.667 15.5 -23s12.167 -13.833 18.5 -19.5s13.5 -10.167 21.5 -13.5c7.33301 -4 15 -6.83301 23 -8.5s16.333 -2.5 25 -2.5
c9.33301 0 18.166 0.833008 26.499 2.5s16.166 4.16699 23.499 7.5c8 3.33301 15.333 7.66602 22 12.999s13.334 11.333 20.001 18s12.334 13.834 17.001 21.501s8.66699 15.834 12 24.501c3.33301 9.33301 5.66602 18.833 6.99902 28.5s2 19.834 2 30.501v7.5
c0 2.33301 -0.333008 4.83301 -1 7.5c0 2 -0.166992 4.16699 -0.5 6.5s-0.833008 4.83301 -1.5 7.5s-1.33398 5.16699 -2.00098 7.5s-1.33398 4.83301 -2.00098 7.5c-0.666992 2 -1.33398 4.16699 -2.00098 6.5s-1.66699 4.83301 -3 7.5c-2 4.66699 -4.16699 9 -6.5 13
s-4.83301 8 -7.5 12l-8 11.5c-2.66699 3.66699 -5.66699 7.16699 -9 10.5c-1.33301 1.33301 -2.5 2.33301 -3.5 3s-2.16699 1.66699 -3.5 3c-2.66699 2 -5.16699 4 -7.5 6s-4.5 3.66699 -6.5 5s-3.83301 2.5 -5.5 3.5s-3.5 2.16699 -5.5 3.5
c-2 0.666992 -3.83301 1.5 -5.5 2.5s-3.5 1.83301 -5.5 2.5c-4 1.33301 -8 2.83301 -12 4.5s-8 3.16699 -12 4.5c-2.66699 1.33301 -5.33398 2.5 -8.00098 3.5s-5.33398 1.83301 -8.00098 2.5c-1.33301 0.666992 -2.66602 1.16699 -3.99902 1.5
s-2.66602 0.833008 -3.99902 1.5h-1.5h-0.5v0v1h-1v0v0v0v0v0h-1v0v0v1h-1.5h-0.5v0v0h-1.5h-0.5v0v0c-0.666992 0 -1 0.166992 -1 0.5v0.5v0v0h-1v0v0v0h-1v0h-1.5h-0.5h-1v1h-1v0h-0.5c-0.333008 0 -0.5 0.333008 -0.5 1h-1v0
c-1.33301 0.666992 -2.83301 1.16699 -4.5 1.5s-3.16699 0.833008 -4.5 1.5c-3.33301 1.33301 -6.5 2.5 -9.5 3.5s-5.83301 1.83301 -8.5 2.5c-2 0.666992 -4.16699 1.5 -6.5 2.5s-4.5 1.83301 -6.5 2.5c-2 1.33301 -4.16699 2.5 -6.5 3.5s-4.5 1.83301 -6.5 2.5
c-1.33301 0.666992 -2.66602 1.16699 -3.99902 1.5s-2.66602 0.833008 -3.99902 1.5c-2.66699 1.33301 -5.33398 2.83301 -8.00098 4.5s-5.33398 3.5 -8.00098 5.5c-4.66699 3.33301 -8.83398 6.5 -12.501 9.5s-7.16699 6.5 -10.5 10.5
c-4.66699 4 -8.83398 8.5 -12.501 13.5l-10.5 14.5c-3.33301 5.33301 -6.33301 10.833 -9 16.5s-5 11.5 -7 17.5c-2.66699 6 -4.66699 12 -6 18s-2.66602 12.333 -3.99902 19c-0.666992 6 -1.33398 12.333 -2.00098 19s-1 13.334 -1 20.001c0 14.667 1 28.667 3 42
s5.33301 26 10 38c4 12 9.33301 23.333 16 34s14.334 20.667 23.001 30s17.667 17.333 27 24s19.333 12.334 30 17.001c11.333 4.66699 22.666 8.16699 33.999 10.5s23 3.5 35 3.5s23.5 -1.16699 34.5 -3.5s21.833 -6.16602 32.5 -11.499c10 -4.66699 19.667 -10.667 29 -18
s18.333 -15.666 27 -24.999s16 -19.333 22 -30s11 -22 15 -34c4.66699 -12 8 -24.5 10 -37.5s3 -26.5 3 -40.5l-66 2c-0.666992 8.66699 -1.83398 17 -3.50098 25s-4.16699 16 -7.5 24c-2.66699 7.33301 -5.83398 14.5 -9.50098 21.5s-8.16699 13.5 -13.5 19.5l-6 6
c-2 2 -4 3.66699 -6 5c-4 3.33301 -7.83301 6.33301 -11.5 9s-7.83398 5 -12.501 7c-6.66699 3.33301 -13.667 5.83301 -21 7.5s-15 2.5 -23 2.5s-15.5 -0.833008 -22.5 -2.5s-13.833 -4.16699 -20.5 -7.5c-6.66699 -2.66699 -12.834 -6.5 -18.501 -11.5
s-11.167 -10.5 -16.5 -16.5c-4.66699 -6.66699 -9 -13.5 -13 -20.5s-7.33301 -14.167 -10 -21.5c-2.66699 -8 -4.5 -16 -5.5 -24s-1.5 -16.333 -1.5 -25c0 -10.667 0.666992 -20.834 2 -30.501s3.66602 -18.167 6.99902 -25.5s7.16602 -13.833 11.499 -19.5
s9.83301 -10.5 16.5 -14.5l12.5 -8c4.33301 -2.66699 8.83301 -5 13.5 -7c2 -1.33301 4.16699 -2.5 6.5 -3.5s4.5 -2.16699 6.5 -3.5c2 -0.666992 3.83301 -1.33398 5.5 -2.00098s3.16699 -1.33398 4.5 -2.00098c5.33301 -2.66699 10.666 -5 15.999 -7s11 -3.66699 17 -5
v-0.5c0 -0.333008 0.333008 -0.5 1 -0.5v-1v0v0h1v0h1v0v0h0.5h1.5l0.5 -0.5l0.5 -0.5c0 -0.666992 0.166992 -1 0.5 -1h0.5h2h2c0 -0.666992 0.166992 -1.16699 0.5 -1.5s0.833008 -0.5 1.5 -0.5h1.5h1.5h0.5h0.5l1 -1v0h2h2c0 -0.666992 0.166992 -1.16699 0.5 -1.5
s0.833008 -0.5 1.5 -0.5h1.5h1.5c2 -0.666992 4.16699 -1.33398 6.5 -2.00098s4.5 -1.66699 6.5 -3c2 -0.666992 4.16699 -1.33398 6.5 -2.00098s4.5 -1.66699 6.5 -3c2 -0.666992 4.16699 -1.5 6.5 -2.5s4.5 -1.83301 6.5 -2.5c2 -1.33301 4 -2.33301 6 -3s4 -1.66699 6 -3
l4 -2l4 -2c2.66699 -2 5.33398 -3.83301 8.00098 -5.5s5.33398 -3.5 8.00098 -5.5c4 -2.66699 8 -5.66699 12 -9s7.66699 -7 11 -11c5.33301 -4.66699 10 -9.66699 14 -15s7.66699 -11 11 -17l10 -18c3.33301 -6 6.33301 -12.667 9 -20
c2.66699 -6.66699 4.83398 -13.5 6.50098 -20.5s3.16699 -14.167 4.5 -21.5c0.666992 -3.33301 1.16699 -6.83301 1.5 -10.5s0.833008 -7.16699 1.5 -10.5c0 -4 0.166992 -7.83301 0.5 -11.5s0.5 -7.16699 0.5 -10.5c0 -15.333 -1.16699 -30 -3.5 -44
s-5.83301 -27.333 -10.5 -40c-5.33301 -12.667 -11.666 -24.834 -18.999 -36.501s-15.666 -22.5 -24.999 -32.5c-9.33301 -10.667 -19.166 -19.667 -29.499 -27s-21.166 -13.666 -32.499 -18.999c-10.667 -4.66699 -22 -8.16699 -34 -10.5s-24.333 -3.5 -37 -3.5
c-13.333 0 -26.333 1.16699 -39 3.5s-24.667 5.5 -36 9.5c-11.333 5.33301 -22.333 11.666 -33 18.999s-20.667 16.333 -30 27c-9.33301 10 -17.666 20.833 -24.999 32.5s-13.333 23.834 -18 36.501c-4.66699 13.333 -8.33398 27.333 -11.001 42s-3.66699 30.334 -3 47.001
v2v0v0z" />
    <glyph glyph-name="T" unicode="T" horiz-adv-x="362" 
d="M150 0v672h-145v67h351v-67h-143v-672h-63v0v0v0z" />
    <glyph glyph-name="U" unicode="U" horiz-adv-x="556" 
d="M64 739l62.9961 0.000976562v-449v-6v-5v-5.5v-4.5v-4.5v-4.5v-4.5c0 -1.66699 0.333008 -3.16699 1 -4.5c0 -5.33301 0.166992 -10.5 0.5 -15.5s0.833008 -10.167 1.5 -15.5c0.666992 -4.66699 1.5 -9.5 2.5 -14.5s2.16699 -10.167 3.5 -15.5
c0.666992 -4.66699 1.66699 -9.5 3 -14.5l4 -14.5l6 -14c2 -4.66699 4.33301 -9.33398 7 -14.001c3.33301 -6.66699 6.83301 -12.667 10.5 -18s7.83398 -10.333 12.501 -15c4 -4.66699 8.66699 -9 14 -13s10.666 -7.66699 15.999 -11s10.833 -6.33301 16.5 -9
s11.5 -4.66699 17.5 -6c5.33301 -2 11 -3.33301 17 -4s12 -1 18 -1v0h1v0v0h0.5h1.5h0.5h1.5v0h1c2.66699 0 5.33398 0.166992 8.00098 0.5s5.33398 0.5 8.00098 0.5c2 0.666992 4.33301 1.33398 7 2.00098l8 2c5.33301 1.33301 10.5 3.33301 15.5 6l14.5 8
c3.33301 2 6.5 4 9.5 6s5.83301 4 8.5 6c1.33301 1.33301 2.83301 2.66602 4.5 3.99902s3.16699 2.66602 4.5 3.99902c4 4 7.83301 8.33301 11.5 13s7.16699 9.66699 10.5 15s6.33301 11 9 17l8 18l6 18c2 6 3.33301 12.333 4 19c1.33301 6.66699 2.33301 13.167 3 19.5
l2 19.5c0.666992 6.66699 1.16699 13.167 1.5 19.5s0.833008 12.833 1.5 19.5v0.5v1.5v0.5v1.5v0v1v0.5v1.5v2v2v2v2v451h63v-449c0 -10 -0.166992 -19.667 -0.5 -29s-1.16602 -18.666 -2.49902 -27.999c0 -3.33301 -0.166992 -6.5 -0.5 -9.5s-0.833008 -6.16699 -1.5 -9.5
c-0.666992 -6 -1.16699 -11.833 -1.5 -17.5s-1.16602 -11.5 -2.49902 -17.5c-0.666992 -8.66699 -2.16699 -17.5 -4.5 -26.5s-5.16602 -17.5 -8.49902 -25.5c-3.33301 -8.66699 -7 -17 -11 -25s-8.66699 -15.667 -14 -23c-4.66699 -8 -9.83398 -15.333 -15.501 -22
s-11.5 -13 -17.5 -19c-6.66699 -6 -13.334 -11.333 -20.001 -16s-13.667 -9 -21 -13c-7.33301 -3.33301 -14.833 -6.16602 -22.5 -8.49902s-15.167 -4.5 -22.5 -6.5c-4.66699 -1.33301 -9.83398 -2.5 -15.501 -3.5s-11.167 -1.5 -16.5 -1.5
c-2.66699 -0.666992 -5.33398 -1 -8.00098 -1h-8c-8 0 -15.833 0.5 -23.5 1.5s-15.167 2.5 -22.5 4.5l-15.5 4l-14.5 4c-2.66699 0.666992 -5.16699 1.5 -7.5 2.5s-4.83301 2.16699 -7.5 3.5c-6.66699 3.33301 -13.5 7.33301 -20.5 12s-13.5 9.66699 -19.5 15
s-11.667 11.166 -17 17.499s-10.666 13.166 -15.999 20.499s-10.333 15 -15 23s-8.66699 16.333 -12 25s-6.16602 17.5 -8.49902 26.5s-4.16602 18.167 -5.49902 27.5c-1.33301 6.66699 -2.5 13.334 -3.5 20.001s-1.83301 13.667 -2.5 21c0 2 -0.166992 4.16699 -0.5 6.5
s-0.5 4.83301 -0.5 7.5c-0.666992 9.33301 -1.16699 18.833 -1.5 28.5s-0.5 19.5 -0.5 29.5v451v0v0v0z" />
    <glyph glyph-name="V" unicode="V" horiz-adv-x="596" 
d="M267 0l-259 739h69l220 -647l222 647h69l-261 -739h-60v0v0v0z" />
    <glyph glyph-name="W" unicode="W" horiz-adv-x="816" 
d="M187 0l-179 739h65l154 -644l151 644h59l151 -643l154 643h65l-179 -739h-83l-137 606l-139 -606h-82v0v0v0z" />
    <glyph glyph-name="X" unicode="X" horiz-adv-x="517" 
d="M6 0l214 378l-201 361h73l167 -296l166 296h73l-204 -361l216 -378h-74l-177 316l-179 -316h-74v0v0v0z" />
    <glyph glyph-name="Y" unicode="Y" horiz-adv-x="503" 
d="M220 0v247l-219 492h69l181 -415l181 415h69l-218 -492v-247h-63v0v0v0z" />
    <glyph glyph-name="Z" unicode="Z" horiz-adv-x="408" 
d="M14 0v66l309 606h-300v67h370v-67l-308 -605h317v-67h-388v0v0v0z" />
    <glyph glyph-name="bracketleft" unicode="[" horiz-adv-x="298" 
d="M266 -51l0.000976562 -76.0059l-16 6c-5.33301 2 -10.666 4.33301 -15.999 7c-4.66699 2.66699 -9.5 5.66699 -14.5 9l-15.5 10c-3.33301 2 -6.5 4.33301 -9.5 7s-5.83301 5.33398 -8.5 8.00098c-1.33301 1.33301 -2.83301 2.66602 -4.5 3.99902
s-3.16699 2.66602 -4.5 3.99902s-2.66602 2.83301 -3.99902 4.5s-2.66602 3.16699 -3.99902 4.5c-2.66699 2.66699 -5.33398 5.5 -8.00098 8.5s-5.33398 6.16699 -8.00098 9.5c-0.666992 0.666992 -1.16699 1.33398 -1.5 2.00098s-0.833008 1.33398 -1.5 2.00098l-2 2
c-0.666992 0.666992 -1 1.33398 -1 2.00098c-0.666992 0.666992 -1.16699 1.5 -1.5 2.5s-0.833008 1.83301 -1.5 2.5s-1.16699 1.33398 -1.5 2.00098s-0.833008 1.33398 -1.5 2.00098l-2 4c-0.666992 1.33301 -1.66699 2.66602 -3 3.99902l-2 4
c-0.666992 1.33301 -1.66699 2.66602 -3 3.99902l-9.5 17.5c-3 5.66699 -5.83301 11.834 -8.5 18.501s-5 13.5 -7 20.5s-3.33301 13.833 -4 20.5c-1.33301 6.66699 -2.5 13.5 -3.5 20.5s-1.83301 14.5 -2.5 22.5s-1 16.167 -1 24.5v25.5v291v18.5
c0 6.33301 0.333008 12.833 1 19.5c0 6 0.166992 12 0.5 18s0.833008 12 1.5 18c0.666992 5.33301 1.5 10.833 2.5 16.5s2.16699 11.5 3.5 17.5s3 11.833 5 17.5s4.33301 11.167 7 16.5c0.666992 1.33301 1.16699 2.5 1.5 3.5s0.833008 1.83301 1.5 2.5
c0 1.33301 0.166992 2.5 0.5 3.5s0.833008 1.83301 1.5 2.5s1 1.33398 1 2.00098s0.333008 1.33398 1 2.00098l2 4l2 4c1.33301 2 2.5 4 3.5 6s2.16699 4 3.5 6l4 6l4 6v0l1 1v0.5v0.5l0.5 0.5l1.5 1.5v0l1 1v0v0v0l1 1v0.5v0.5c3.33301 4.66699 7 9.16699 11 13.5l12 13.5
l14 13.5l14 13.5l15.5 11.5c5 3.66699 9.83301 6.83398 14.5 9.50098c5.33301 3.33301 10.666 6 15.999 8l16 6v0v0v0l1 1v0v0v0h1v0v0v0v0h0.5c0.333008 0 0.833008 0.333008 1.5 1v0v0h0.5h1.5v-74c-10.667 -6 -20.5 -12.167 -29.5 -18.5s-16.833 -13.166 -23.5 -20.499
c-7.33301 -6.66699 -13.833 -14 -19.5 -22s-10.167 -16.333 -13.5 -25c-4.66699 -8.66699 -8.5 -17.667 -11.5 -27s-5.16699 -19.666 -6.5 -30.999c-2 -10.667 -3.5 -22 -4.5 -34s-1.5 -24.667 -1.5 -38v-275c0 -14.667 0.5 -28.334 1.5 -41.001s2.16699 -24.667 3.5 -36
s3.5 -22 6.5 -32l8.5 -28c3.33301 -8.66699 7.66602 -16.834 12.999 -24.501s12 -14.834 20 -21.501c7.33301 -7.33301 15.833 -14.166 25.5 -20.499s20.167 -12.5 31.5 -18.5v-1v0v0z" />
    <glyph glyph-name="backslash" unicode="\" horiz-adv-x="514" 
d="M334 0l-263 739h60l263 -739h-60v0v0v0z" />
    <glyph glyph-name="bracketright" unicode="]" horiz-adv-x="298" 
d="M32 663l0.00585938 76.0215l8 -4c2.66699 -1.33301 5.33398 -2.33301 8.00098 -3c2 -1.33301 4.33301 -2.66602 7 -3.99902l8 -4c5.33301 -2.66699 10.5 -5.66699 15.5 -9l14.5 -10c1.33301 -1.33301 2.83301 -2.5 4.5 -3.5s3.16699 -2.16699 4.5 -3.5
c3.33301 -2.66699 6.5 -5.33398 9.5 -8.00098s5.83301 -5.33398 8.5 -8.00098c3.33301 -2.66699 6.16602 -5.5 8.49902 -8.5l7.5 -9.5c1.33301 -1.33301 2.66602 -2.83301 3.99902 -4.5s2.66602 -3.16699 3.99902 -4.5c0.666992 -0.666992 1.16699 -1.33398 1.5 -2.00098
s0.833008 -1.33398 1.5 -2.00098s1.16699 -1.33398 1.5 -2.00098s0.833008 -1.33398 1.5 -2.00098s1.16699 -1.5 1.5 -2.5s0.833008 -1.83301 1.5 -2.5s1.16699 -1.33398 1.5 -2.00098s0.833008 -1.33398 1.5 -2.00098s1.16699 -1.33398 1.5 -2.00098
s0.833008 -1.33398 1.5 -2.00098c0 -0.666992 0.166992 -1.33398 0.5 -2.00098s0.833008 -1.33398 1.5 -2.00098s1.16699 -1.33398 1.5 -2.00098s0.833008 -1.33398 1.5 -2.00098c0 -0.666992 0.166992 -1.33398 0.5 -2.00098s0.833008 -1.33398 1.5 -2.00098
c4 -6.66699 7.5 -13.167 10.5 -19.5s5.83301 -13.166 8.5 -20.499c2.66699 -6.66699 4.83398 -13.334 6.50098 -20.001s3.16699 -13.334 4.5 -20.001c0.666992 -3.33301 1.16699 -6.83301 1.5 -10.5s0.833008 -7.5 1.5 -11.5c0 -3.33301 0.166992 -6.83301 0.5 -10.5
s0.833008 -7.5 1.5 -11.5c0.666992 -8 1.16699 -16 1.5 -24s0.5 -16.333 0.5 -25v-287c0 -8 -0.166992 -15.5 -0.5 -22.5s-0.833008 -13.833 -1.5 -20.5s-1.16699 -13 -1.5 -19s-0.833008 -11.667 -1.5 -17c0 -4 -0.5 -7.83301 -1.5 -11.5s-1.83301 -7.5 -2.5 -11.5
c0 -2 -0.166992 -3.83301 -0.5 -5.5s-0.833008 -3.5 -1.5 -5.5c-0.666992 -2.66699 -1.5 -5.33398 -2.5 -8.00098s-1.83301 -5.33398 -2.5 -8.00098c-1.33301 -3.33301 -2.33301 -6.33301 -3 -9s-1.66699 -5.33398 -3 -8.00098c0 -0.666992 -0.333008 -1.33398 -1 -2.00098
s-1 -1.33398 -1 -2.00098l-2 -4l-2 -4c0 -0.666992 -0.333008 -1.33398 -1 -2.00098l-1 -1l-1 -1v-0c-0.666992 -0.666992 -1.33398 -1.5 -2.00098 -2.5s-1 -1.83301 -1 -2.5c-1.33301 -2 -2.5 -4 -3.5 -6s-2.16699 -4 -3.5 -6
c-0.666992 -1.33301 -1.33398 -2.5 -2.00098 -3.5s-1.33398 -1.83301 -2.00098 -2.5c-0.666992 -1.33301 -1.33398 -2.5 -2.00098 -3.5s-1.33398 -1.83301 -2.00098 -2.5h-1v0v-0.5v-1.5v0v0v0v-1h-1v0v0v-1v0v0c-3.33301 -4.66699 -6.83301 -9.16699 -10.5 -13.5
s-7.5 -8.5 -11.5 -12.5c-3.33301 -4 -7.16602 -8.16699 -11.499 -12.5l-13.5 -13.5l-14 -11.5c-4.66699 -3.66699 -9.66699 -6.83398 -15 -9.50098c-4.66699 -3.33301 -9.5 -6.16602 -14.5 -8.49902l-14.5 -6.5h-1.5c-0.333008 0 -0.5 -0.333008 -0.5 -1h-0.5h-1.5
c-0.666992 0 -1.33398 -0.166992 -2.00098 -0.5s-1.33398 -0.833008 -2.00098 -1.5h-1.5h-2.5c-0.666992 0 -1.16699 -0.166992 -1.5 -0.5l-1.5 -1.5v75c10 5.33301 19.333 11 28 17s16.667 12.667 24 20c7.33301 6.66699 13.666 13.5 18.999 20.5s10.333 14.833 15 23.5
c3.33301 8.66699 6.5 17.834 9.5 27.501s5.83301 19.834 8.5 30.501c1.33301 11.333 2.5 23 3.5 35s1.5 24.333 1.5 37v278v6v6v3.5v3.5v3v3v6v6v6v6c-0.666992 3.33301 -1.16699 6.83301 -1.5 10.5s-0.833008 7.5 -1.5 11.5c-0.666992 2 -1.16699 4 -1.5 6s-0.5 4 -0.5 6
c0 1.33301 -0.166992 3 -0.5 5s-0.833008 4 -1.5 6l-2 6l-2 6c-0.666992 2 -1.5 4.16699 -2.5 6.5s-2.16699 4.83301 -3.5 7.5c0 1.33301 -0.333008 2.5 -1 3.5s-1 2.16699 -1 3.5c-0.666992 0.666992 -1.33398 1.66699 -2.00098 3s-1 2.66602 -1 3.99902
c-1.33301 2.66699 -2.66602 5.16699 -3.99902 7.5s-2.66602 4.83301 -3.99902 7.5c-2.66699 4.66699 -5.33398 9 -8.00098 13s-5.66699 8 -9 12c-2.66699 3.33301 -5.5 6.66602 -8.5 9.99902s-6.16699 6.33301 -9.5 9s-6.66602 5.16699 -9.99902 7.5
s-6.66602 4.83301 -9.99902 7.5c-4 2.66699 -8 5.16699 -12 7.5s-8 4.83301 -12 7.5v2v0v0z" />
    <glyph glyph-name="asciicircum" unicode="^" horiz-adv-x="515" 
d="M69 180h-54l217 559h49l218 -559h-54l-190 484l-186 -484v0v0v0z" />
    <glyph glyph-name="underscore" unicode="_" horiz-adv-x="425" 
d="M425 -125h-425v58h425v-58v0v0v0z" />
    <glyph glyph-name="grave" unicode="`" horiz-adv-x="321" 
d="M90 779l168 -108l-28 -58l-168 106l28 60v0v0v0z" />
    <glyph glyph-name="a" unicode="a" horiz-adv-x="580" 
d="M527 547l0.00292969 -546.996h-61v103h-2c-4 -10.667 -8.66699 -20.334 -14 -29.001s-11 -16.667 -17 -24c-6.66699 -7.33301 -13.5 -14 -20.5 -20s-14.5 -11.333 -22.5 -16s-16.167 -8.33398 -24.5 -11.001l-25.5 -8c-8.66699 -2 -17.5 -3.66699 -26.5 -5
s-18.167 -2 -27.5 -2h-4h-3c-1.33301 0.666992 -2.66602 1 -3.99902 1h-4h-4h-3c-1.33301 0.666992 -2.5 1 -3.5 1h-3.5c-1.33301 0 -2.5 0.166992 -3.5 0.5s-2.16699 0.5 -3.5 0.5c-1.33301 0.666992 -2.5 1.16699 -3.5 1.5s-2.16699 0.5 -3.5 0.5
c-2.66699 0.666992 -5.16699 1.16699 -7.5 1.5s-4.5 0.833008 -6.5 1.5c-4.66699 0.666992 -9.16699 1.5 -13.5 2.5s-8.5 2.5 -12.5 4.5c-2 0.666992 -4.16699 1.5 -6.5 2.5s-4.5 1.83301 -6.5 2.5l-19.5 10c-6.33301 3.33301 -12.5 7.33301 -18.5 12
c-6.66699 4.66699 -13 9.5 -19 14.5s-12 10.5 -18 16.5s-11.833 12.333 -17.5 19s-11.167 13.667 -16.5 21c-0.666992 0 -1.16699 0.166992 -1.5 0.5s-0.5 0.833008 -0.5 1.5s-0.166992 1.16699 -0.5 1.5l-1.5 1.5c-0.666992 1.33301 -1.33398 2.5 -2.00098 3.5
s-1.33398 2.16699 -2.00098 3.5s-1.5 2.66602 -2.5 3.99902s-1.83301 2.66602 -2.5 3.99902s-1.33398 2.83301 -2.00098 4.5s-1.33398 3.5 -2.00098 5.5c-2 4 -4 8.33301 -6 13s-3.66699 9.33398 -5 14.001c-0.666992 2 -1.16699 3.83301 -1.5 5.5s-0.833008 3.5 -1.5 5.5
c-1.33301 3.33301 -2.5 7.16602 -3.5 11.499s-1.83301 8.5 -2.5 12.5c-1.33301 4.66699 -2.5 9.33398 -3.5 14.001s-1.83301 9.66699 -2.5 15c0 1.33301 -0.166992 2.83301 -0.5 4.5s-0.5 3.5 -0.5 5.5c-0.666992 7.33301 -1.16699 14.5 -1.5 21.5s-0.5 14.167 -0.5 21.5
c0 9.33301 0.333008 18.5 1 27.5s1.66699 17.833 3 26.5c2 8.66699 4.16699 17.167 6.5 25.5s4.83301 16.833 7.5 25.5l10 24c3.33301 8 7 15.333 11 22l14 21l14 20c5.33301 6.66699 11 13 17 19s12.333 11.667 19 17l20 15.5c6.66699 5 14 9.5 22 13.5
c7.33301 4 15 7.5 23 10.5s16.333 5.5 25 7.5s17.667 3.66699 27 5s19 2 29 2v0v0h0.5h1.5v0h1v0v0h0.5h1.5c4 0 8.16699 -0.333008 12.5 -1l13.5 -2c4.66699 -0.666992 9.16699 -1.5 13.5 -2.5s8.5 -2.16699 12.5 -3.5l12.5 -4c4.33301 -1.33301 8.5 -3 12.5 -5l12.5 -6
l12.5 -6c8 -4.66699 15.5 -10 22.5 -16s13.5 -12.667 19.5 -20c6 -6.66699 11.667 -14.334 17 -23.001s10 -17.667 14 -27l2 2v104h61v0v0v0zM284.003 488.004c-12.667 -0.666992 -24.832 -2.50098 -36.499 -5.50098s-23.167 -7.16699 -34.5 -12.5
c-10.667 -4.66699 -21.167 -11 -31.5 -19s-19.833 -17.333 -28.5 -28c-9.33301 -10.667 -17.5 -21.667 -24.5 -33s-12.5 -23.666 -16.5 -36.999c-4.66699 -12.667 -8.16699 -26 -10.5 -40s-3.5 -28.667 -3.5 -44c0 -14.667 1.16699 -29 3.5 -43s5.83301 -27.333 10.5 -40
s10.667 -24.834 18 -36.501s15.333 -22.5 24 -32.5c9.33301 -10.667 19.166 -19.667 29.499 -27s20.833 -13.666 31.5 -18.999c2 -0.666992 4.16699 -1.5 6.5 -2.5s4.83301 -1.83301 7.5 -2.5c8.66699 -3.33301 17.667 -5.83301 27 -7.5s19.333 -2.5 30 -2.5
c12 0 23.667 1.33301 35 4s22.333 6.66699 33 12s21 11.833 31 19.5s19.333 16.834 28 27.501s16.334 21.667 23.001 33s12.334 23.333 17.001 36c4 12 7.16699 24.667 9.5 38s3.5 27.333 3.5 42c0 15.333 -1.16699 30 -3.5 44s-5.5 27.333 -9.5 40
c-4.66699 13.333 -10.167 25.666 -16.5 36.999s-13.833 22.333 -22.5 33s-17.834 20 -27.501 28s-19.834 14.667 -30.501 20s-22 9.33301 -34 12s-24.667 4 -38 4v2v0v0z" />
    <glyph glyph-name="b" unicode="b" horiz-adv-x="579" 
d="M53 0l-0.00488281 738.998h63v-294h2c3.33301 7.33301 6.83301 14.5 10.5 21.5s7.83398 13.833 12.501 20.5c5.33301 6 11 11.833 17 17.5s12.333 10.834 19 15.501c2.66699 1.33301 5 2.66602 7 3.99902s4.33301 2.66602 7 3.99902
c4.66699 2.66699 9.33398 5.16699 14.001 7.5s9.33398 4.5 14.001 6.5s9.83398 4 15.501 6s11.5 3.66699 17.5 5c1.33301 0 3 0.166992 5 0.5s4 0.833008 6 1.5h1.5h1.5h2.5c1 0 1.83301 0.333008 2.5 1h0.5h0.5h0.5h1.5h1.5h1.5h2h2h2
c0.666992 0 1.33398 0.333008 2.00098 1h2h2h1h2c16.667 0 32.834 -1.66699 48.501 -5s30.834 -8.33301 45.501 -15s28.834 -15.167 42.501 -25.5s26.834 -22.166 39.501 -35.499s23.5 -27.5 32.5 -42.5s16.833 -31.167 23.5 -48.5
c6.66699 -16.667 11.667 -34.334 15 -53.001s5 -38 5 -58c0 -8.66699 -0.5 -17.167 -1.5 -25.5s-2.16699 -16.5 -3.5 -24.5c-0.666992 -8 -2 -16 -4 -24l-6 -23c-1.33301 -4 -2.5 -7.66699 -3.5 -11s-2.16699 -6.66602 -3.5 -9.99902s-2.5 -6.5 -3.5 -9.5
s-2.16699 -6.16699 -3.5 -9.5c-2.66699 -6 -5.33398 -11.5 -8.00098 -16.5s-5.66699 -9.83301 -9 -14.5l-1.5 -1.5l-0.5 -0.5v-1.5v-0.5l-1.5 -1.5l-0.5 -0.5v-0.5v-0.5l-1 -1v0c0 -0.666992 -0.166992 -1.16699 -0.5 -1.5l-1.5 -1.5l-1.5 -1.5l-1.5 -1.5l-9.5 -13
c-3 -4 -6.16699 -8 -9.5 -12s-6.5 -7.5 -9.5 -10.5l-9.5 -9.5c-3.33301 -2.66699 -6.5 -5.5 -9.5 -8.5s-6.16699 -5.83301 -9.5 -8.5c-2.66699 -2.66699 -5.5 -5 -8.5 -7s-6.16699 -4 -9.5 -6l-14 -8c-4.66699 -2.66699 -9.33398 -5 -14.001 -7l-14 -4
c-4.66699 -1.33301 -9.33398 -2.33301 -14.001 -3c-2.66699 -0.666992 -5.16699 -1.16699 -7.5 -1.5s-4.5 -0.833008 -6.5 -1.5c-2.66699 0 -5.16699 -0.166992 -7.5 -0.5s-4.83301 -0.833008 -7.5 -1.5c-3.33301 -0.666992 -6.66602 -1 -9.99902 -1
s-6.66602 -0.333008 -9.99902 -1h-5h-5h-3.5h-3.5h-1.5h-0.5c-0.666992 0.666992 -1.16699 1 -1.5 1h-1.5h-2h-2c-0.666992 0.666992 -1.16699 1 -1.5 1h-1.5h-2.5h-3.5h-2h-1c-0.666992 0.666992 -1.33398 1 -2.00098 1h-2h-0.5h-1.5c-0.666992 0.666992 -1.16699 1 -1.5 1
h-1.5h-1h-1h-1v0c-0.666992 0.666992 -1.33398 1 -2.00098 1h-1h-1h-1h-1v0c-0.666992 0.666992 -1.33398 1 -2.00098 1h-1c-6.66699 1.33301 -13.5 2.83301 -20.5 4.5s-13.5 3.83398 -19.5 6.50098c-6.66699 2.66699 -13.167 5.66699 -19.5 9s-12.5 7.33301 -18.5 12
c-6.66699 4 -12.667 8.33301 -18 13s-10.333 9.66699 -15 15s-9 11.333 -13 18s-7.66699 13.334 -11 20.001l-1 2v-94h-60v0v0v0zM293.995 487.998c-6.66699 -0.666992 -13.1699 -1.66895 -19.5029 -3.00195l-18.5 -4c-6 -1.33301 -12 -3 -18 -5s-11.667 -4.33301 -17 -7
c-6 -2.66699 -11.5 -5.83398 -16.5 -9.50098l-15.5 -11.5c-4.66699 -4 -9.33398 -8.33301 -14.001 -13s-9.33398 -9.66699 -14.001 -15s-9 -10.833 -13 -16.5s-7.66699 -11.5 -11 -17.5s-6.16602 -12 -8.49902 -18s-4.16602 -12 -5.49902 -18
c-2 -6.66699 -3.66699 -13.167 -5 -19.5s-2.66602 -13.166 -3.99902 -20.499c-0.666992 -6.66699 -1.16699 -13.667 -1.5 -21s-0.5 -14.666 -0.5 -21.999c0 -15.333 1 -30 3 -44s5.33301 -27.333 10 -40s10.334 -24.5 17.001 -35.5s14.667 -21.5 24 -31.5s19 -18.667 29 -26
s20.333 -13.666 31 -18.999c11.333 -4.66699 23 -8.33398 35 -11.001s24.333 -4 37 -4c9.33301 0 18.333 0.666992 27 2s17.334 3.66602 26.001 6.99902c2.66699 0.666992 5.5 1.66699 8.5 3s5.83301 2.66602 8.5 3.99902c11.333 5.33301 21.833 11.833 31.5 19.5
s18.834 16.834 27.501 27.501c9.33301 10.667 17.333 21.834 24 33.501s12 23.834 16 36.501c4.66699 12.667 8.16699 26 10.5 40s3.5 28.333 3.5 43c0 15.333 -1.16699 30.166 -3.5 44.499s-5.83301 27.833 -10.5 40.5s-10.334 24.667 -17.001 36s-14.667 22 -24 32
c-8.66699 10 -18 18.833 -28 26.5s-20.667 13.834 -32 18.501c-10.667 5.33301 -22.167 9.33301 -34.5 12s-24.833 4 -37.5 4v2v0v0z" />
    <glyph glyph-name="c" unicode="c" horiz-adv-x="549" 
d="M446 160l68.9951 0.00683594c-5.33301 -14 -11.166 -27 -17.499 -39s-13.5 -23.333 -21.5 -34c-7.33301 -10.667 -15.333 -20.667 -24 -30s-17.667 -17.666 -27 -24.999c-10.667 -8 -21.167 -14.833 -31.5 -20.5s-21.166 -9.83398 -32.499 -12.501
c-11.333 -3.33301 -23 -6 -35 -8s-24.333 -3 -37 -3c-16.667 0 -33.167 1.66699 -49.5 5s-32.166 7.66602 -47.499 12.999c-14.667 6.66699 -28.834 15 -42.501 25s-26.834 21.667 -39.501 35s-23.667 27.833 -33 43.5s-17 31.834 -23 48.501
c-6.66699 17.333 -11.5 35.5 -14.5 54.5s-4.5 38.833 -4.5 59.5c0 20 1.5 39.5 4.5 58.5s7.83301 36.833 14.5 53.5c6 17.333 13.833 33.5 23.5 48.5s20.834 29.167 33.501 42.5s25.667 25.166 39 35.499s27.333 18.833 42 25.5c14.667 7.33301 30 12.666 46 15.999
s32.333 5 49 5c12 0 24 -1 36 -3s23.667 -5 35 -9s22.666 -9 33.999 -15s22.333 -13 33 -21c11.333 -8 21.333 -16.667 30 -26s17 -19.666 25 -30.999c7.33301 -10.667 14 -22.167 20 -34.5s11.333 -25.166 16 -38.499l-70 2l-14 21.5c-4.66699 7 -9.66699 13.833 -15 20.5
c-5.33301 6 -11.166 12 -17.499 18s-13.166 11.333 -20.499 16c-2.66699 1.33301 -5.16699 2.66602 -7.5 3.99902s-4.83301 2.66602 -7.5 3.99902c-4.66699 2.66699 -9.5 5.16699 -14.5 7.5s-10.167 4.16602 -15.5 5.49902c-4 1.33301 -7.83301 2.5 -11.5 3.5
s-7.5 1.83301 -11.5 2.5s-7.83301 1.16699 -11.5 1.5s-7.5 0.5 -11.5 0.5c-13.333 0 -26 -1.33301 -38 -4s-23.667 -6.66699 -35 -12c-10.667 -4.66699 -21.167 -10.834 -31.5 -18.501s-20.166 -16.5 -29.499 -26.5c-8.66699 -10 -16.667 -20.667 -24 -32
s-13.333 -23.333 -18 -36s-8.16699 -26 -10.5 -40s-3.5 -28.667 -3.5 -44s1.16699 -30 3.5 -44s5.83301 -27.333 10.5 -40c4 -12.667 9.5 -24.834 16.5 -36.501s14.833 -22.834 23.5 -33.501c9.33301 -10.667 18.833 -19.834 28.5 -27.501s19.834 -14.167 30.501 -19.5
s22 -9.33301 34 -12s24.667 -4 38 -4c8.66699 0 17.167 0.5 25.5 1.5s16.5 2.5 24.5 4.5c7.33301 2 14.666 4.66699 21.999 8s14.333 7.33301 21 12c6.66699 4 13 8.66699 19 14s12 11.333 18 18c6 6 11.833 12.667 17.5 20s10.834 15.333 15.501 24v2v0v0z" />
    <glyph glyph-name="d" unicode="d" horiz-adv-x="582" 
d="M528 739l0.00390625 -739.001h-59v100h-2c-6 -10.667 -12 -20.167 -18 -28.5s-12.333 -16.166 -19 -23.499c-6.66699 -6.66699 -13.667 -13 -21 -19s-14.666 -11.333 -21.999 -16s-15.166 -8.33398 -23.499 -11.001s-17.166 -5 -26.499 -7
c-8.66699 -2 -17.834 -3.66699 -27.501 -5s-19.167 -2 -28.5 -2h-8c-2.66699 0 -5 0.333008 -7 1c-2.66699 0 -5.33398 0.166992 -8.00098 0.5s-5.33398 0.5 -8.00098 0.5c-2.66699 0.666992 -5.16699 1.16699 -7.5 1.5s-4.5 0.833008 -6.5 1.5
c-2.66699 0.666992 -5.16699 1.33398 -7.5 2.00098s-4.83301 1.33398 -7.5 2.00098s-5.16699 1.33398 -7.5 2.00098s-4.5 1.33398 -6.5 2.00098c-2.66699 0.666992 -5.16699 1.5 -7.5 2.5s-4.83301 1.83301 -7.5 2.5c-4.66699 2 -9.33398 4.5 -14.001 7.5
s-9.33398 6.16699 -14.001 9.5c-2 1.33301 -3.83301 2.5 -5.5 3.5s-3.16699 2.16699 -4.5 3.5s-2.83301 2.66602 -4.5 3.99902s-3.5 2.66602 -5.5 3.99902c-3.33301 2.66699 -6.5 5.5 -9.5 8.5s-6.16699 5.83301 -9.5 8.5c-2.66699 3.33301 -5.83398 6.5 -9.50098 9.5
s-7.16699 6.5 -10.5 10.5c-3.33301 3.33301 -6.5 7 -9.5 11s-6.16699 8 -9.5 12h-0.5c-0.333008 0 -0.5 0.333008 -0.5 1v0v0c-0.666992 0 -1 0.166992 -1 0.5v1.5h-0.5c-0.333008 0 -0.5 0.333008 -0.5 1h-1v0c-0.666992 0 -1.16699 0.166992 -1.5 0.5
s-0.5 0.833008 -0.5 1.5l-0.5 0.5c-0.333008 0.333008 -0.5 0.833008 -0.5 1.5l-0.5 0.5c-0.333008 0.333008 -0.5 0.833008 -0.5 1.5c-0.666992 0.666992 -1.16699 1.33398 -1.5 2.00098s-0.833008 1.33398 -1.5 2.00098c-2.66699 3.33301 -5.16699 7.33301 -7.5 12
s-4.5 9.66699 -6.5 15c-2.66699 5.33301 -5 11.333 -7 18l-6 21c-2 7.33301 -3.83301 14.833 -5.5 22.5s-2.83398 15.5 -3.50098 23.5c-1.33301 8 -2.33301 16 -3 24s-1 16.333 -1 25c0 20 1.5 39.5 4.5 58.5s7.83301 36.833 14.5 53.5c6 17.333 13.667 33.5 23 48.5
s20 29.167 32 42.5c12.667 13.333 25.667 25.166 39 35.499s27.333 18.833 42 25.5s30 11.667 46 15s32.333 5 49 5h2h2h1h2h1.5h1.5h2h2c8 -0.666992 16 -1.83398 24 -3.50098s15.667 -3.83398 23 -6.50098c8 -2.66699 16 -5.66699 24 -9s15.667 -7.33301 23 -12
s14.333 -9.66699 21 -15s13 -11 19 -17c6 -6.66699 11.5 -13.667 16.5 -21s9.83301 -15 14.5 -23l1 2v287h63v0v0v0zM467.004 275.999c0 14.667 -1.16992 28.665 -3.50293 41.998s-5.83301 26.333 -10.5 39s-10.334 24.667 -17.001 36s-14.667 22 -24 32
s-19 18.833 -29 26.5s-20.667 13.834 -32 18.501c-2.66699 1.33301 -5.5 2.5 -8.5 3.5s-5.83301 2.16699 -8.5 3.5c-8.66699 2.66699 -17.334 4.83398 -26.001 6.50098s-17.667 2.5 -27 2.5c-12.667 0 -24.667 -1.33301 -36 -4s-22.333 -6.66699 -33 -12
c-10.667 -4.66699 -21 -11 -31 -19s-19.333 -17 -28 -27c-9.33301 -10.667 -17.5 -21.667 -24.5 -33s-12.5 -23.333 -16.5 -36c-4.66699 -12.667 -8.16699 -25.667 -10.5 -39s-3.5 -27.333 -3.5 -42s1.16699 -29 3.5 -43s5.83301 -27.667 10.5 -41
c4 -12.667 9.5 -24.834 16.5 -36.501s14.833 -22.834 23.5 -33.501c9.33301 -10.667 18.833 -20 28.5 -28s19.834 -14.667 30.501 -20c11.333 -5.33301 23 -9.33301 35 -12s24.333 -4 37 -4s24.834 1.33301 36.501 4s22.834 6.66699 33.501 12c11.333 5.33301 22 12 32 20
s19.333 17.333 28 28s16.334 21.834 23.001 33.501s12.334 23.834 17.001 36.501c4.66699 13.333 8.16699 27 10.5 41s3.5 28.333 3.5 43v2v0v0z" />
    <glyph glyph-name="e" unicode="e" horiz-adv-x="552" 
d="M519 247l-421.001 0.00976562c0.666992 -14 2.16699 -27.167 4.5 -39.5s5.83301 -24.166 10.5 -35.499c5.33301 -10.667 11.333 -21.167 18 -31.5s14.334 -20.166 23.001 -29.499c9.33301 -9.33301 18.666 -17.5 27.999 -24.5s19 -12.833 29 -17.5s20.167 -8 30.5 -10
s20.833 -3 31.5 -3v0v0h0.5h1.5v0h1v0v0v0h1v0v0c8.66699 0 17 0.666992 25 2s16 3.33301 24 6c8 3.33301 16 7 24 11s16 8.66699 24 14c7.33301 5.33301 14.333 11.166 21 17.499s12.667 12.833 18 19.5c5.33301 7.33301 10.333 15.166 15 23.499s8.66699 17.166 12 26.499
l65 2c-4 -14.667 -8.83301 -28.334 -14.5 -41.001s-12.167 -24.667 -19.5 -36s-15.5 -22 -24.5 -32s-18.833 -19.667 -29.5 -29c-10.667 -8.66699 -21.5 -16.5 -32.5 -23.5s-22.167 -12.5 -33.5 -16.5c-11.333 -3.33301 -23 -6.16602 -35 -8.49902s-24.333 -3.5 -37 -3.5
c-16.667 0 -32.834 1.66699 -48.501 5s-30.834 8 -45.501 14c-14.667 6.66699 -28.5 15 -41.5 25s-25.5 22 -37.5 36c-12 13.333 -22.5 27.833 -31.5 43.5s-16.5 31.834 -22.5 48.501c-6 17.333 -10.333 35.166 -13 53.499s-4 37.5 -4 57.5
c0 19.333 1.33301 38.166 4 56.499s7 35.833 13 52.5c6 17.333 13.5 33.666 22.5 48.999s19.5 30 31.5 44c11.333 14 23.333 26.333 36 37s26.334 19.334 41.001 26.001c14.667 7.33301 29.834 12.666 45.501 15.999s31.834 5 48.501 5c9.33301 0 18.5 -0.666992 27.5 -2
s17.833 -3 26.5 -5c8.66699 -2.66699 17.167 -5.66699 25.5 -9s16.5 -7.33301 24.5 -12s15.833 -9.83398 23.5 -15.501s14.834 -11.834 21.501 -18.501c7.33301 -6.66699 14.166 -13.667 20.499 -21s12.166 -15 17.499 -23s10.333 -16 15 -24s8.66699 -16 12 -24
c2 -4 3.66699 -8 5 -12s3 -8 5 -12c1.33301 -4.66699 2.5 -9 3.5 -13s1.83301 -8 2.5 -12c1.33301 -8.66699 2.83301 -17.334 4.5 -26.001s2.83398 -17.667 3.50098 -27c0 -4.66699 0.166992 -9.33398 0.5 -14.001s0.833008 -9.33398 1.5 -14.001
s1.16699 -9.33398 1.5 -14.001s0.5 -9.33398 0.5 -14.001v2v0v0zM97.999 314.01h358.001c-2 11.333 -4.83301 22.5 -8.5 33.5s-8.16699 21.5 -13.5 31.5c-4.66699 10 -10.5 19.667 -17.5 29s-14.833 18.333 -23.5 27c-5.33301 6 -11.166 11.333 -17.499 16
s-12.5 8.66699 -18.5 12c-2.66699 2 -5.5 3.83301 -8.5 5.5s-6.16699 3.16699 -9.5 4.5c-9.33301 4 -19 7.16699 -29 9.5s-20.667 3.5 -32 3.5c-10.667 0 -21.334 -1.16699 -32.001 -3.5s-21 -5.5 -31 -9.5c-9.33301 -4 -18.5 -9 -27.5 -15s-17.833 -13 -26.5 -21
c-8.66699 -8.66699 -16.5 -17.667 -23.5 -27s-13.167 -19 -18.5 -29c-4.66699 -10.667 -8.83398 -21.667 -12.501 -33s-6.5 -23.333 -8.5 -36v2v0v0z" />
    <glyph glyph-name="f" unicode="f" horiz-adv-x="266" 
d="M85 0v480.002h-72v67h72v0v1v1.5v1.5v0v1v0v0v0.5v1.5v0v0v0.5v1.5c0 14.667 1 28.5 3 41.5s4.66699 24.833 8 35.5c4 11.333 9 21.5 15 30.5s12.667 17.5 20 25.5c8 7.33301 16.333 14 25 20s18 11 28 15s20.5 7 31.5 9s22.833 3.33301 35.5 4l12 2v-67h-12
c-8 -0.666992 -15.5 -1.83398 -22.5 -3.50098s-13.833 -3.5 -20.5 -5.5c-6.66699 -2.66699 -12.667 -5.66699 -18 -9s-10.333 -7.33301 -15 -12s-8.66699 -10 -12 -16s-6 -12.667 -8 -20c-2.66699 -6.66699 -4.5 -14.334 -5.5 -23.001s-1.5 -17.667 -1.5 -27v-9h116v-67
h-116v-480h-63v0v0v0z" />
    <glyph glyph-name="g" unicode="g" horiz-adv-x="572" 
d="M518 547l-0.00195312 -468.989v-12v-11c-0.666992 -4 -1 -7.66699 -1 -11v-10c-0.666992 -6.66699 -1.16699 -13 -1.5 -19s-0.5 -11.333 -0.5 -16c-0.666992 -2.66699 -1.16699 -5.33398 -1.5 -8.00098s-0.833008 -5.33398 -1.5 -8.00098
c-0.666992 -3.33301 -1.16699 -6.5 -1.5 -9.5s-0.5 -5.83301 -0.5 -8.5c-0.666992 -2.66699 -1.5 -5.33398 -2.5 -8.00098s-2.16699 -5.33398 -3.5 -8.00098c0 -1.33301 -0.333008 -2.66602 -1 -3.99902s-1.33398 -3 -2.00098 -5v-1c0 -0.666992 -0.333008 -1 -1 -1
c0 -1.33301 -0.166992 -2.5 -0.5 -3.5s-0.833008 -1.83301 -1.5 -2.5c0 -0.666992 -0.333008 -1.33398 -1 -2.00098s-1 -1.33398 -1 -2.00098c-0.666992 -1.33301 -1.33398 -2.83301 -2.00098 -4.5s-1.33398 -3.16699 -2.00098 -4.5s-1.33398 -2.5 -2.00098 -3.5
s-1.33398 -2.16699 -2.00098 -3.5c-0.666992 -0.666992 -1.33398 -1.66699 -2.00098 -3l-2 -4l-4.5 -6.5c-1.66699 -2.33301 -3.16699 -4.83301 -4.5 -7.5c-2 -2.66699 -4 -5.16699 -6 -7.5s-3.66699 -4.83301 -5 -7.5c-4.66699 -6 -9.66699 -11.667 -15 -17
s-10.666 -10.333 -15.999 -15c-6 -5.33301 -12 -10 -18 -14s-12.333 -7.66699 -19 -11l-19.5 -9.5c-6.33301 -3 -12.833 -5.83301 -19.5 -8.5l-20.5 -6c-7 -2 -13.833 -3.66699 -20.5 -5h-2.5c-1 0 -1.83301 -0.333008 -2.5 -1h-2h-3h-2
c-0.666992 0 -1.33398 -0.333008 -2.00098 -1h-2h-2h-2.5h-2.5h-2c-0.666992 0 -1.33398 -0.333008 -2.00098 -1h-2h-3h-1.5h-2.5c-12.667 0 -25.167 1.16699 -37.5 3.5s-24.5 5.83301 -36.5 10.5s-23.667 10.5 -35 17.5s-22.666 15.167 -33.999 24.5
c-10.667 9.33301 -20.667 19.333 -30 30s-17.333 22 -24 34c-7.33301 12 -13.5 24.667 -18.5 38s-9.16699 27.666 -12.5 42.999l61 -1c4.66699 -9.33301 9.5 -18.5 14.5 -27.5s10.5 -17.5 16.5 -25.5s12.333 -15.333 19 -22s13.334 -13 20.001 -19
c7.33301 -5.33301 14.833 -10.333 22.5 -15s15.834 -8.33398 24.501 -11.001c8.66699 -3.33301 17.5 -5.66602 26.5 -6.99902s18.5 -2 28.5 -2h2h2h1h2h0.5h1.5v0h1c0 0.666992 0.166992 1 0.5 1h1.5h0.5h1.5c6.66699 0.666992 13.334 1.66699 20.001 3s13.334 3 20.001 5
c6.66699 2.66699 13.167 5.5 19.5 8.5s12.833 6.5 19.5 10.5s12.834 8.5 18.501 13.5s10.834 10.167 15.501 15.5s9.16699 11.166 13.5 17.499s8.16602 13.166 11.499 20.499c1.33301 2 2.33301 4 3 6l2 6c0.666992 0.666992 1.16699 1.5 1.5 2.5s0.833008 2.16699 1.5 3.5
c0 0.666992 0.166992 1.5 0.5 2.5s0.833008 2.16699 1.5 3.5v2.5c0 1 0.333008 2.16699 1 3.5c0 0.666992 0.166992 1.5 0.5 2.5s0.833008 1.83301 1.5 2.5v1.5c0 0.333008 0.333008 0.833008 1 1.5v1.5v1.5c0 0.666992 0.166992 1.5 0.5 2.5s0.833008 2.16699 1.5 3.5
c0 1.33301 0.166992 3.5 0.5 6.5s0.833008 5.83301 1.5 8.5c0.666992 3.33301 1.16699 6.5 1.5 9.5s0.5 6.16699 0.5 9.5v4.5v5.5v4.5c0 1.66699 0.333008 3.5 1 5.5v3v3v2.5v2.5v5v6v32h-2c-3.33301 -10 -7 -19 -11 -27s-8.66699 -15.667 -14 -23
c-4.66699 -6.66699 -10.167 -13 -16.5 -19s-13.166 -11.333 -20.499 -16c-4 -2.66699 -7.83301 -5 -11.5 -7l-10.5 -6c-3.33301 -2 -6.83301 -3.66699 -10.5 -5l-11.5 -4l-23.5 -6c-7.66699 -2 -15.167 -3.66699 -22.5 -5h-2h-2h-1.5
c-0.333008 0 -0.833008 -0.333008 -1.5 -1h-2h-2h-2h-2h-1.5h-1.5h-2c-0.666992 0 -1 -0.333008 -1 -1h-2h-2h-1.5h-0.5h-0.5h-0.5h-1.5h-0.5v0v0h-1.5h-0.5v0v0h-1.5h-0.5v0v0h-1.5h-0.5v0v0h-1v0c-3.33301 0 -6.83301 0.333008 -10.5 1s-7.16699 1 -10.5 1l-11.5 2
c-3.66699 0.666992 -7.16699 1.66699 -10.5 3l-21.5 6c-7 2 -14.167 4.66699 -21.5 8c-6.66699 3.33301 -13.5 7 -20.5 11s-13.5 8.33301 -19.5 13l-16.5 15c-5.66699 5.33301 -11.167 11 -16.5 17c-6 6.66699 -11.667 13.5 -17 20.5s-10.333 14.5 -15 22.5
s-8.83398 16.167 -12.501 24.5s-7.16699 16.833 -10.5 25.5c-2.66699 8.66699 -5.16699 17.5 -7.5 26.5s-4.5 18.167 -6.5 27.5c-1.33301 9.33301 -2.33301 18.833 -3 28.5s-1 19.5 -1 29.5c0 7.33301 0.166992 14.166 0.5 20.499s0.833008 12.833 1.5 19.5
c0 1.33301 0.166992 2.83301 0.5 4.5s0.5 3.5 0.5 5.5c0.666992 4.66699 1.5 9.5 2.5 14.5s2.16699 9.83301 3.5 14.5c0.666992 4 1.5 8 2.5 12s2.16699 7.66699 3.5 11c0.666992 2 1.16699 4 1.5 6s0.833008 3.66699 1.5 5c1.33301 5.33301 3 10.333 5 15s4 9 6 13
c0.666992 1.33301 1.33398 2.83301 2.00098 4.5s1.33398 2.83398 2.00098 3.50098l2 4l2 4c0 0.666992 0.166992 1.16699 0.5 1.5l0.5 0.5v1v1l0.5 1c0.333008 0.666992 0.833008 1.33398 1.5 2.00098l1.5 1.5c0.333008 0.333008 0.5 0.833008 0.5 1.5
c0.666992 0 1.16699 0.166992 1.5 0.5s0.5 0.833008 0.5 1.5l12 16c4 5.33301 8 10.333 12 15c3.33301 4.66699 7 9.16699 11 13.5l12 12.5c5.33301 5.33301 10.666 10.166 15.999 14.499s10.666 8.16602 15.999 11.499c2.66699 2 5.33398 3.83301 8.00098 5.5
s5.33398 3.16699 8.00098 4.5c8 4 16 7.5 24 10.5s16.333 5.5 25 7.5c8 2 16 3.66699 24 5s16.333 2 25 2v0h1v0v0h0.5h1.5v0v0h0.5h1.5v0v0h0.5h1.5v0v0h0.5h1.5c9.33301 -0.666992 18.333 -1.66699 27 -3s17.334 -3.33301 26.001 -6s17 -5.83398 25 -9.50098
s16 -8.16699 24 -13.5c8 -4.66699 15.5 -10 22.5 -16s13.5 -12.667 19.5 -20c6 -6.66699 11.5 -14.334 16.5 -23.001s9.83301 -17.667 14.5 -27l2 2v106h60v0v0v0zM270.998 488.011c-12.667 -0.666992 -24.5 -2.50586 -35.5 -5.50586s-21.5 -7.16699 -31.5 -12.5
c-10.667 -4.66699 -20.667 -11 -30 -19s-18 -17.333 -26 -28c-8.66699 -10.667 -16 -21.667 -22 -33s-11.333 -23 -16 -35c-4 -12 -7 -24.5 -9 -37.5s-3 -26.5 -3 -40.5c0 -15.333 1 -30 3 -44s5 -27.667 9 -41c4.66699 -12.667 9.83398 -25 15.501 -37
s12.834 -23.333 21.501 -34s17.667 -20.167 27 -28.5s19.333 -15.166 30 -20.499c11.333 -5.33301 22.833 -9.33301 34.5 -12s24.5 -4 38.5 -4h9c2.66699 0 5.66699 0.333008 9 1c2.66699 0 5.5 0.333008 8.5 1s5.83301 1.33398 8.5 2.00098
c5.33301 1.33301 10.833 2.83301 16.5 4.5s11.167 3.83398 16.5 6.50098s10.666 5.5 15.999 8.5s10.333 6.5 15 10.5c2 2 4.16699 4 6.5 6s4.83301 4.33301 7.5 7c2.66699 2 5.16699 4.33301 7.5 7s4.5 5.33398 6.5 8.00098c3.33301 3.33301 6.33301 7 9 11
s5.33398 8.33301 8.00098 13s5.16699 9.5 7.5 14.5s4.83301 9.83301 7.5 14.5c1.33301 2.66699 2.33301 5.16699 3 7.5s1.66699 4.83301 3 7.5c0.666992 2.66699 1.5 5.33398 2.5 8.00098s1.83301 5.33398 2.5 8.00098c0.666992 2 1.16699 3.83301 1.5 5.5
s0.5 3.16699 0.5 4.5c0.666992 4 1.5 7.83301 2.5 11.5s1.5 7.16699 1.5 10.5v2v2c0 1.33301 0.166992 2.5 0.5 3.5s0.833008 1.83301 1.5 2.5v2v2v1.5c0 0.333008 0.333008 0.833008 1 1.5v0.5v1.5v2v2v1.5v1.5l0.5 0.5c0.333008 0.333008 0.5 0.833008 0.5 1.5v2v2v1.5
v1.5v0.5v1.5c0 15.333 -1.16699 30 -3.5 44s-5.83301 27.333 -10.5 40s-10.334 24.667 -17.001 36s-14.667 22.333 -24 33c-8.66699 10 -17.834 19 -27.501 27s-20.167 14.333 -31.5 19c-10.667 5.33301 -22.167 9.33301 -34.5 12s-24.833 4 -37.5 4v2v0v0z" />
    <glyph glyph-name="h" unicode="h" horiz-adv-x="518" 
d="M53 0l-0.00390625 738.998h63v-271c3.33301 6.66699 6.83301 13 10.5 19s7.83398 11.667 12.501 17s9.66699 10.166 15 14.499s11.333 8.5 18 12.5c6 3.33301 12 6.5 18 9.5s12.333 5.83301 19 8.5c6 2 12.5 3.66699 19.5 5s13.833 2.33301 20.5 3v0h1h0.5h1.5h1.5h1.5
h0.5h1.5c7.33301 0 14.666 -0.5 21.999 -1.5s14.333 -2.5 21 -4.5c4 -0.666992 7.83301 -1.66699 11.5 -3l10.5 -4l10.5 -4c3.66699 -1.33301 7.5 -3 11.5 -5c2 -1.33301 4.16699 -2.66602 6.5 -3.99902s4.5 -2.66602 6.5 -3.99902c4.66699 -2.66699 9.16699 -5.5 13.5 -8.5
s8.5 -6.16699 12.5 -9.5c6 -5.33301 11.833 -11 17.5 -17s10.834 -12.333 15.501 -19s9 -13.5 13 -20.5s7.66699 -14.167 11 -21.5s6.33301 -14.833 9 -22.5s4.66699 -15.167 6 -22.5l2 -12l2 -12c0.666992 -4.66699 1.16699 -9 1.5 -13s0.833008 -8 1.5 -12
c1.33301 -8.66699 2 -17.167 2 -25.5v-25.5v-286h-62v288c0 5.33301 -0.166992 10.666 -0.5 15.999s-0.833008 11 -1.5 17c-0.666992 5.33301 -1.16699 10.833 -1.5 16.5s-1.16602 11.167 -2.49902 16.5c-0.666992 5.33301 -1.66699 10.833 -3 16.5
s-2.66602 10.834 -3.99902 15.501c-0.666992 2.66699 -1.66699 5.33398 -3 8.00098l-4 8c-1.33301 2 -2.66602 4.33301 -3.99902 7l-4 8c-2 4 -4.5 8 -7.5 12s-6.16699 7.66699 -9.5 11c-0.666992 0.666992 -1.5 1.66699 -2.5 3s-2.16699 2.33301 -3.5 3l-14 12
c-4.66699 4 -9.66699 7.33301 -15 10c-5.33301 3.33301 -10.833 6 -16.5 8s-11.167 3.66699 -16.5 5c-6 1.33301 -11.833 2.5 -17.5 3.5s-11.167 1.5 -16.5 1.5h-1.5h-0.5h-1v0h-1.5h-0.5h-1v0h-1.5h-0.5v0v0h-1v0c-0.666992 -0.666992 -1.16699 -1 -1.5 -1h-0.5v0v0h-1v0
c-4.66699 -0.666992 -9.5 -1.5 -14.5 -2.5s-9.83301 -2.16699 -14.5 -3.5l-14 -6c-4.66699 -2 -9.33398 -4.66699 -14.001 -8c-4.66699 -2.66699 -9.16699 -5.83398 -13.5 -9.50098s-8.5 -7.5 -12.5 -11.5l-10 -12c-3.33301 -4 -6.66602 -8.33301 -9.99902 -13
c-1.33301 -2 -2.5 -4 -3.5 -6s-2.16699 -3.66699 -3.5 -5c-0.666992 -2 -1.5 -4 -2.5 -6s-1.83301 -4 -2.5 -6c-1.33301 -2.66699 -2.5 -5.66699 -3.5 -9s-1.83301 -6.66602 -2.5 -9.99902c0 -1.33301 -0.166992 -2.5 -0.5 -3.5s-0.5 -2.16699 -0.5 -3.5l-2 -13.5l-2 -13.5
c-0.666992 -4.66699 -1 -9.16699 -1 -13.5v-13.5v-4v-4v-4v-4v-4v-4v-2.5v-3.5v-286h-63v0v0v0z" />
    <glyph glyph-name="i" unicode="i" horiz-adv-x="170" 
d="M53 0v547h63v-547h-63v0v0v0zM53 613v126h63v-126h-63v0v0v0z" />
    <glyph glyph-name="j" unicode="j" horiz-adv-x="172" 
d="M119 547l0.00195312 -497.005v-2v-2v-1.5v-0.5v-1.5v-0.5v-1.5v-0.5c0 -8.66699 -0.166992 -16.834 -0.5 -24.501s-0.833008 -14.834 -1.5 -21.501c-0.666992 -7.33301 -1.16699 -14.666 -1.5 -21.999s-1.16602 -14.666 -2.49902 -21.999
c0 -3.33301 -0.333008 -6.83301 -1 -10.5s-1.66699 -7.5 -3 -11.5c-0.666992 -3.33301 -1.66699 -6.83301 -3 -10.5l-4 -10.5l-6 -10c-2 -3.33301 -4 -7 -6 -11c-2 -3.33301 -4.16699 -6.66602 -6.5 -9.99902s-4.83301 -6.66602 -7.5 -9.99902c-4 -4.66699 -8 -9 -12 -13
s-8.33301 -7.66699 -13 -11c-4 -3.33301 -8.16699 -6.5 -12.5 -9.5s-9.16602 -5.83301 -14.499 -8.5c-0.666992 0 -1.33398 -0.166992 -2.00098 -0.5s-1 -0.833008 -1 -1.5c-0.666992 0 -1.33398 -0.166992 -2.00098 -0.5s-1.33398 -0.5 -2.00098 -0.5l-4 -2l-4 -2
c-2 -0.666992 -3.83301 -1.16699 -5.5 -1.5s-2.83398 -0.833008 -3.50098 -1.5c-1.33301 -0.666992 -2.83301 -1.16699 -4.5 -1.5s-3.5 -0.833008 -5.5 -1.5c-2 0 -4 -0.166992 -6 -0.5s-4.33301 -0.5 -7 -0.5c-2 -0.666992 -4 -1 -6 -1h-6l-3 71
c12 1.33301 22.167 3.16602 30.5 5.49902s15.833 5.83301 22.5 10.5s12.167 10.334 16.5 17.001s7.83301 14.334 10.5 23.001l6 26.5c2 9 3.33301 18.167 4 27.5c1.33301 8.66699 2.33301 17.834 3 27.501s1 19.834 1 30.501v499h63v0v0v0zM56.002 612.995v126h63v-126h-63
v0v0v0z" />
    <glyph glyph-name="k" unicode="k" horiz-adv-x="426" 
d="M53 0v739h63v-519l213 327h81l-180 -274l192 -273h-81l-151 216l-74 -112v-104h-63v0v0v0z" />
    <glyph glyph-name="l" unicode="l" horiz-adv-x="170" 
d="M53 0v739h63v-739h-63v0v0v0z" />
    <glyph glyph-name="m" unicode="m" horiz-adv-x="797" 
d="M53 0l0.000976562 546.999h60v-71h1c2.66699 6.66699 5.66699 13 9 19s7.33301 11.333 12 16c4 5.33301 8.5 10.166 13.5 14.499s10.167 8.16602 15.5 11.499c2.66699 1.33301 5.5 2.66602 8.5 3.99902s5.83301 2.66602 8.5 3.99902s5.5 2.66602 8.5 3.99902
s5.83301 2.33301 8.5 3c6 1.33301 12.333 2.5 19 3.5s13.334 1.5 20.001 1.5c4 0 7.83301 -0.166992 11.5 -0.5s7.16699 -0.5 10.5 -0.5l10.5 -2c3.66699 -0.666992 7.5 -1.66699 11.5 -3c3.33301 -0.666992 6.66602 -1.66699 9.99902 -3l10 -4l10 -4
c3.33301 -1.33301 6.66602 -3 9.99902 -5c4.66699 -2 8.83398 -4.5 12.501 -7.5s7.5 -5.83301 11.5 -8.5c2 -2 4 -3.66699 6 -5s4 -3 6 -5c5.33301 -4.66699 10.5 -10 15.5 -16s9.83301 -12.333 14.5 -19v-0.5c0 -0.333008 0.333008 -0.5 1 -0.5v-1.5v-0.5
c0 -0.666992 0.166992 -1.16699 0.5 -1.5l1.5 -1.5v-0.5c0 -0.333008 0.333008 -0.5 1 -0.5v-1v0c0 -0.666992 0.166992 -1.16699 0.5 -1.5s0.833008 -0.5 1.5 -0.5v-0.5c0 -0.333008 0.333008 -0.5 1 -0.5v-1.5v-0.5c0 -0.666992 0.166992 -1.16699 0.5 -1.5l1.5 -1.5v-1.5
v-0.5v0h1v-1.5v-0.5v0h1c0 -0.666992 0.166992 -1 0.5 -1h0.5v0v0v0.5c0 0.333008 0.333008 0.833008 1 1.5v0v0v0v1v0v0v0.5v1.5l0.5 0.5l1.5 1.5v1.5c0 0.333008 0.333008 0.833008 1 1.5c0 0.666992 0.166992 1.16699 0.5 1.5l1.5 1.5
c0 0.666992 0.166992 1.33398 0.5 2.00098s0.833008 1.33398 1.5 2.00098v0.5c0 0.333008 0.333008 0.833008 1 1.5v0.5v1.5c3.33301 5.33301 7 10.5 11 15.5l12 14.5l14 12c4.66699 4 9.66699 7.66699 15 11s10.666 6.5 15.999 9.5s11 5.5 17 7.5l16.5 6
c5.66699 2 11.5 3.33301 17.5 4h1h2h0.5c0.333008 0 0.833008 0.333008 1.5 1h0.5h1.5h0.5c0.333008 0 0.833008 0.333008 1.5 1h0.5h1.5h1h2h1.5h1.5h2.5c1 0 1.83301 0.333008 2.5 1h1h2h1.5h1.5c3.33301 0 6.5 -0.166992 9.5 -0.5s6.16699 -0.5 9.5 -0.5
c2.66699 -0.666992 5.66699 -1.33398 9 -2.00098s6.33301 -1.33398 9 -2.00098c3.33301 -0.666992 6.5 -1.66699 9.5 -3s6.16699 -2.66602 9.5 -3.99902c2.66699 -1.33301 5.66699 -2.66602 9 -3.99902s6.33301 -3 9 -5c6 -3.33301 12 -7.16602 18 -11.499
s12 -9.16602 18 -14.499c3.33301 -2.66699 6.33301 -5.5 9 -8.5s5.66699 -5.83301 9 -8.5c2.66699 -3.33301 5.5 -6.5 8.5 -9.5s5.83301 -6.16699 8.5 -9.5c4.66699 -5.33301 9 -11 13 -17s7.33301 -12 10 -18c3.33301 -6.66699 6 -13.167 8 -19.5
s3.66699 -13.166 5 -20.499c0.666992 -3.33301 1.16699 -6.83301 1.5 -10.5s0.833008 -7.16699 1.5 -10.5c0.666992 -4 1.16699 -7.83301 1.5 -11.5s0.833008 -7.16699 1.5 -10.5v-11.5c0 -3.66699 0.333008 -7.5 1 -11.5v-11v-12v-310h-63v305v3.5v3.5v4v4v2v2v1.5v1.5v0.5
v1.5v2v2v1.5v1.5v0.5v1.5c-0.666992 1.33301 -1.16699 2.83301 -1.5 4.5s-0.5 3.5 -0.5 5.5v3.5v2.5c-0.666992 1.33301 -1 2.5 -1 3.5v2.5c-0.666992 1.33301 -1.16699 2.83301 -1.5 4.5s-0.5 3.5 -0.5 5.5c0 1.33301 -0.166992 2.33301 -0.5 3s-0.5 1.66699 -0.5 3
c0 0.666992 -0.166992 1.5 -0.5 2.5s-0.5 1.83301 -0.5 2.5c-0.666992 2 -1.33398 3.83301 -2.00098 5.5s-1 3.5 -1 5.5c-0.666992 1.33301 -1.33398 2.83301 -2.00098 4.5s-1.33398 3.5 -2.00098 5.5c-0.666992 1.33301 -1.16699 2.5 -1.5 3.5s-0.833008 1.83301 -1.5 2.5
c0 0.666992 -0.166992 1.33398 -0.5 2.00098s-0.5 1.33398 -0.5 2.00098c-0.666992 1.33301 -1.33398 2.83301 -2.00098 4.5s-1.66699 3.16699 -3 4.5c-2.66699 5.33301 -5.83398 10.333 -9.50098 15s-7.5 9 -11.5 13c-2 2.66699 -4.5 5.16699 -7.5 7.5l-8.5 6.5
c-1.33301 0.666992 -2.66602 1.66699 -3.99902 3s-2.66602 2.33301 -3.99902 3c-2.66699 1.33301 -5.16699 2.5 -7.5 3.5s-4.5 2.16699 -6.5 3.5c-2.66699 0.666992 -5.16699 1.5 -7.5 2.5s-4.83301 1.83301 -7.5 2.5c-5.33301 1.33301 -10.5 2.5 -15.5 3.5
s-10.167 1.5 -15.5 1.5c-4.66699 0 -9.5 -0.5 -14.5 -1.5s-10.167 -2.16699 -15.5 -3.5c-4.66699 -1.33301 -9.16699 -3 -13.5 -5l-14.5 -7c-4.66699 -2.66699 -9.16699 -5.66699 -13.5 -9s-8.16602 -7 -11.499 -11c-4 -4 -7.66699 -8 -11 -12s-6.33301 -8.33301 -9 -13
c-0.666992 -0.666992 -1.16699 -1.5 -1.5 -2.5s-0.833008 -2.16699 -1.5 -3.5c-1.33301 -2 -2.5 -4 -3.5 -6s-1.83301 -4 -2.5 -6c-0.666992 -1.33301 -1.33398 -2.83301 -2.00098 -4.5s-1 -3.16699 -1 -4.5c-0.666992 -2 -1.16699 -3.83301 -1.5 -5.5
s-0.5 -3.16699 -0.5 -4.5l-2 -10l-2 -10c-0.666992 -3.33301 -1 -6.66602 -1 -9.99902v-10v-5.5v-4.5v-5.5v-4.5v-5.5v-4.5v-4.5v-4.5v-1.5v-0.5v-1v0v-1.5v-0.5v0v0v-303h-63v313v4.5v4.5c-0.666992 1.33301 -1 2.83301 -1 4.5v4.5v4.5v5.5
c-0.666992 1.33301 -1 2.83301 -1 4.5v4.5c-0.666992 3.33301 -1.16699 6.5 -1.5 9.5s-0.833008 5.83301 -1.5 8.5c-0.666992 3.33301 -1.16699 6.66602 -1.5 9.99902s-1.16602 6.66602 -2.49902 9.99902c0 0.666992 -0.166992 1.33398 -0.5 2.00098
s-0.5 1.33398 -0.5 2.00098s-0.166992 1.33398 -0.5 2.00098s-0.5 1.33398 -0.5 2.00098c-0.666992 1.33301 -1.16699 2.66602 -1.5 3.99902s-0.833008 2.66602 -1.5 3.99902c-0.666992 0.666992 -1.16699 1.33398 -1.5 2.00098s-0.5 1.33398 -0.5 2.00098
s-0.166992 1.33398 -0.5 2.00098s-0.833008 1.33398 -1.5 2.00098l-2 4l-2 4c-2.66699 5.33301 -5.83398 10.166 -9.50098 14.499s-7.5 8.5 -11.5 12.5c-3.33301 4 -7.16602 7.83301 -11.499 11.5s-8.83301 6.83398 -13.5 9.50098
c-2.66699 1.33301 -5.16699 2.66602 -7.5 3.99902s-4.5 2.66602 -6.5 3.99902c-2.66699 0.666992 -5.16699 1.5 -7.5 2.5s-4.83301 1.83301 -7.5 2.5c-4.66699 1.33301 -9.5 2.5 -14.5 3.5s-10.167 1.5 -15.5 1.5c-2.66699 0 -5.16699 -0.166992 -7.5 -0.5
s-4.5 -0.5 -6.5 -0.5c-2.66699 -0.666992 -5.16699 -1.16699 -7.5 -1.5s-4.83301 -0.833008 -7.5 -1.5c-2 -0.666992 -4.16699 -1.33398 -6.5 -2.00098s-4.83301 -1.33398 -7.5 -2.00098c-2.66699 -1.33301 -5.16699 -2.5 -7.5 -3.5s-4.5 -2.16699 -6.5 -3.5
c-4.66699 -2.66699 -9.16699 -5.5 -13.5 -8.5s-8.16602 -6.16699 -11.499 -9.5l-10 -12c-3.33301 -4 -6.66602 -8.33301 -9.99902 -13l-7.5 -13.5c-2.33301 -4.33301 -4.5 -9.16602 -6.5 -14.499c-1.33301 -4.66699 -2.5 -9.33398 -3.5 -14.001s-1.5 -9.33398 -1.5 -14.001
c-0.666992 -4.66699 -1.16699 -9.5 -1.5 -14.5s-0.5 -10.167 -0.5 -15.5c0 -2.66699 -0.166992 -5.33398 -0.5 -8.00098s-0.5 -5 -0.5 -7v-8v-8v-311h-63v0v0v0z" />
    <glyph glyph-name="n" unicode="n" horiz-adv-x="518" 
d="M53 0l-0.0078125 547.001h60v-79h1c4.66699 6.66699 9.33398 13 14.001 19s9.33398 11.667 14.001 17c5.33301 5.33301 10.833 10.5 16.5 15.5s11.167 9.5 16.5 13.5c6 4 12.333 7.5 19 10.5s13.334 5.5 20.001 7.5s13.667 3.5 21 4.5s14.666 1.5 21.999 1.5
c4 0 7.83301 -0.166992 11.5 -0.5s7.5 -0.5 11.5 -0.5l11.5 -2c3.66699 -0.666992 7.5 -1.66699 11.5 -3c7.33301 -2 14.833 -4.5 22.5 -7.5s14.834 -6.5 21.501 -10.5c7.33301 -4 14.333 -8.5 21 -13.5s13 -10.167 19 -15.5s12 -11.166 18 -17.499
s11.667 -13.166 17 -20.499l6 -10l6 -10l5.5 -11c1.66699 -3.33301 3.16699 -6.66602 4.5 -9.99902l4 -10.5l4 -10.5c0.666992 -4 1.5 -7.83301 2.5 -11.5s1.83301 -7.16699 2.5 -10.5c1.33301 -7.33301 2.5 -14.833 3.5 -22.5s1.83301 -15.5 2.5 -23.5s1 -16.167 1 -24.5
v-25.5v-286h-62v288v3.5v3.5c-0.666992 1.33301 -1 2.66602 -1 3.99902v4v9.5v8.5c-0.666992 2.66699 -1.16699 5.33398 -1.5 8.00098s-0.5 5.33398 -0.5 8.00098c0 1.33301 -0.166992 2.66602 -0.5 3.99902s-0.5 3 -0.5 5c-0.666992 1.33301 -1.16699 2.66602 -1.5 3.99902
s-0.5 2.66602 -0.5 3.99902c-0.666992 5.33301 -1.66699 10.833 -3 16.5s-2.66602 10.834 -3.99902 15.501c-2 5.33301 -4.16699 10.5 -6.5 15.5s-5.16602 9.83301 -8.49902 14.5c-2 4 -4.5 7.66699 -7.5 11s-5.83301 6.66602 -8.5 9.99902
c-1.33301 1.33301 -2.66602 2.83301 -3.99902 4.5s-2.66602 3.16699 -3.99902 4.5l-13.5 12c-4.33301 4 -9.16602 7.33301 -14.499 10c-5.33301 3.33301 -10.833 6 -16.5 8s-11.167 3.66699 -16.5 5c-6 1.33301 -11.833 2.5 -17.5 3.5s-11.167 1.5 -16.5 1.5h-1.5h-1.5h-1.5
h-1.5h-0.5h-1.5h-1.5h-1.5c-4.66699 -0.666992 -9.5 -1.5 -14.5 -2.5s-9.83301 -2.5 -14.5 -4.5c-5.33301 -2 -10.333 -4 -15 -6s-9.33398 -4.66699 -14.001 -8c-4.66699 -2.66699 -9.16699 -5.83398 -13.5 -9.50098s-8.16602 -7.5 -11.499 -11.5c-4 -4 -7.5 -8 -10.5 -12
l-9.5 -13l-4 -6c-1.33301 -2 -2.33301 -4 -3 -6l-3.5 -7c-1 -2 -1.83301 -4 -2.5 -6c-2 -4.66699 -3.5 -9.16699 -4.5 -13.5s-1.83301 -8.83301 -2.5 -13.5l-2 -13.5c-0.666992 -4.33301 -1 -9.16602 -1 -14.499c-0.666992 -4.66699 -1 -9.33398 -1 -14.001v-14
c-0.666992 -0.666992 -1 -1.33398 -1 -2.00098v-2v-2v-2v-2v-2v-2v-2v-1.5v-1.5v-1.5v-0.5v-1.5v-0.5v-1.5v-0.5v-286h-63v0v0v0z" />
    <glyph glyph-name="o" unicode="o" horiz-adv-x="556" 
d="M279 559c16 -0.666992 31.499 -2.83398 46.499 -6.50098s29.5 -9.16699 43.5 -16.5c14 -6.66699 27.667 -15.334 41 -26.001s26 -23 38 -37s22.5 -28.667 31.5 -44s16.5 -31.333 22.5 -48s10.667 -33.667 14 -51s5 -35.666 5 -54.999s-1.5 -38 -4.5 -56
s-7.5 -35.667 -13.5 -53c-6 -16.667 -13.5 -33 -22.5 -49s-19.167 -31 -30.5 -45c-12 -14.667 -24.333 -27.167 -37 -37.5s-26.334 -19.166 -41.001 -26.499c-14.667 -6.66699 -29.667 -11.667 -45 -15s-31.333 -5 -48 -5s-32.667 1.66699 -48 5s-30 8 -44 14
c-14.667 6.66699 -28.667 15 -42 25s-26 22 -38 36c-12 13.333 -22.5 27.666 -31.5 42.999s-16.5 31.333 -22.5 48s-10.5 34 -13.5 52s-4.5 37 -4.5 57c0 19.333 1.33301 38.333 4 57s7 36.334 13 53.001c6 17.333 13.5 33.666 22.5 48.999s19.5 30.333 31.5 45
c12 14 24.5 26.333 37.5 37s26.833 19.334 41.5 26.001c14.667 7.33301 29.834 12.833 45.501 16.5s31.834 5.5 48.501 5.5v2v0v0zM278.999 488c-12.667 -0.666992 -24.998 -2.66016 -36.998 -5.99316s-23.333 -7.66602 -34 -12.999s-20.834 -12 -30.501 -20
s-18.834 -17.333 -27.501 -28s-16.334 -21.834 -23.001 -33.501s-12 -24.167 -16 -37.5c-4.66699 -12.667 -8 -25.834 -10 -39.501s-3 -27.834 -3 -42.501s1 -28.834 3 -42.501s5.33301 -26.834 10 -39.501c4 -12.667 9.5 -24.667 16.5 -36s14.833 -22 23.5 -32
c9.33301 -10.667 18.666 -19.834 27.999 -27.501s19.333 -14.167 30 -19.5c11.333 -4.66699 22.666 -8.33398 33.999 -11.001s23.333 -4 36 -4c13.333 0 25.833 1.33301 37.5 4s22.834 6.66699 33.501 12s20.834 12.166 30.501 20.499s18.834 17.833 27.501 28.5
c8 10.667 15 21.834 21 33.501s11.333 23.834 16 36.501c4 13.333 7.16699 27 9.5 41s3.5 28.333 3.5 43c0 7.33301 -0.333008 14.666 -1 21.999s-1.66699 14.333 -3 21c-0.666992 6.66699 -2 13.167 -4 19.5l-6 19.5c-2 6 -4.33301 12 -7 18s-5.66699 12 -9 18
c-3.33301 5.33301 -7 10.833 -11 16.5s-8.66699 11.167 -14 16.5c-2.66699 3.33301 -5.5 6.33301 -8.5 9s-6.16699 5.33398 -9.5 8.00098c-1.33301 1.33301 -2.83301 2.66602 -4.5 3.99902s-3.16699 2.66602 -4.5 3.99902l-14.5 10c-5 3.33301 -10.167 6.33301 -15.5 9
s-10.833 5 -16.5 7s-11.167 3.66699 -16.5 5c-6 1.33301 -11.833 2.33301 -17.5 3s-11.167 1 -16.5 1v2v0v0z" />
    <glyph glyph-name="p" unicode="p" horiz-adv-x="579" 
d="M53 547l60.0049 -0.00292969v-94h1c3.33301 6 7 12 11 18s8.33301 11.667 13 17s9.66699 10.333 15 15s11.333 9.33398 18 14.001c6 4 12.167 7.83301 18.5 11.5s12.833 6.83398 19.5 9.50098c6 3.33301 12.5 6 19.5 8s13.833 3.66699 20.5 5h1
c0.666992 0 1.33398 0.333008 2.00098 1v0h1h1h1h1c0.666992 0 1.33398 0.333008 2.00098 1v0h1h1h1h1.5c0.333008 0 0.833008 0.333008 1.5 1h1.5h0.5h2c0.666992 0 1.33398 0.333008 2.00098 1h1h2h3.5h2.5h1.5c0.333008 0 0.833008 0.333008 1.5 1h2h2h1.5
c0.333008 0 0.833008 0.333008 1.5 1h0.5h1.5h3.5h3.5c4 0 8.16699 -0.166992 12.5 -0.5s8.5 -0.833008 12.5 -1.5l12.5 -2c4.33301 -0.666992 8.5 -1.66699 12.5 -3c8 -2 16 -4.5 24 -7.5s16 -6.5 24 -10.5c8 -4.66699 16 -9.66699 24 -15s15.667 -11.333 23 -18
c5.33301 -4.66699 10.5 -9.5 15.5 -14.5s9.83301 -10.5 14.5 -16.5c2.66699 -2.66699 5.16699 -5.33398 7.5 -8.00098l7.5 -9c2 -2 3.83301 -4 5.5 -6s3.16699 -4.33301 4.5 -7s2.83301 -5.16699 4.5 -7.5s3.5 -5.16602 5.5 -8.49902
c3.33301 -6 6.66602 -12.667 9.99902 -20s6.33301 -15 9 -23c2.66699 -8.66699 5 -17.334 7 -26.001s3.66699 -17.667 5 -27c1.33301 -8.66699 2.5 -17.834 3.5 -27.501s1.5 -19.5 1.5 -29.5c0 -20.667 -1.66699 -40.167 -5 -58.5s-8.33301 -36.166 -15 -53.499
c-6.66699 -16.667 -14.5 -32.667 -23.5 -48s-19.833 -29.666 -32.5 -42.999s-25.834 -25 -39.501 -35s-27.834 -18.333 -42.501 -25c-14.667 -5.33301 -29.834 -9.66602 -45.501 -12.999s-31.834 -5 -48.501 -5h-2h-1h-2h-2c-0.666992 0.666992 -1.33398 1 -2.00098 1h-2h-2
h-2h-1.5h-1.5h-1.5h-0.5h-0.5h-0.5c-0.666992 0.666992 -1.5 1 -2.5 1h-2.5h-1.5h-1.5c-2 0.666992 -4 1.16699 -6 1.5s-3.66699 0.5 -5 0.5c-6 1.33301 -11.833 2.83301 -17.5 4.5l-15.5 4.5l-14 6c-4.66699 2 -9.33398 4.33301 -14.001 7
c-2.66699 1.33301 -5 2.83301 -7 4.5s-4.33301 3.16699 -7 4.5c-6.66699 4.66699 -13 9.66699 -19 15s-11.667 11.333 -17 18c-4.66699 6 -8.83398 12.667 -12.501 20s-7.16699 15.333 -10.5 24l-2 2v-294h-63v739v0v0v0zM294.005 57.9971
c12.667 -0.666992 25.1699 0.162109 37.5029 2.49512s23.833 5.83301 34.5 10.5c11.333 5.33301 22 11.666 32 18.999s19.333 16.333 28 27c9.33301 10 17.333 20.667 24 32s12.334 23.333 17.001 36c4.66699 13.333 8.16699 27 10.5 41s3.5 28.667 3.5 44
c0 14.667 -1.16699 28.834 -3.5 42.501s-5.83301 26.834 -10.5 39.501c-4 13.333 -9.33301 25.666 -16 36.999s-14.667 22.333 -24 33c-8.66699 10.667 -17.834 20 -27.501 28s-20.167 14.667 -31.5 20c-2.66699 1.33301 -5.5 2.5 -8.5 3.5s-5.83301 2.16699 -8.5 3.5
c-8.66699 2.66699 -17.334 4.83398 -26.001 6.50098s-17.667 2.5 -27 2.5c-12.667 0 -25 -1.16699 -37 -3.5s-23.667 -6.16602 -35 -11.499c-10.667 -4.66699 -21 -10.834 -31 -18.501s-19.667 -16.5 -29 -26.5s-17.333 -20.667 -24 -32s-12.334 -23.333 -17.001 -36
s-8 -25.667 -10 -39s-3 -27.666 -3 -42.999c0 -7.33301 0.166992 -14.5 0.5 -21.5s0.833008 -14.167 1.5 -21.5l4 -20.5c1.33301 -7 3 -13.5 5 -19.5c1.33301 -6.66699 3.16602 -13 5.49902 -19s5.16602 -12 8.49902 -18s7 -11.667 11 -17s8.33301 -10.666 13 -15.999
l14 -15.5c4.66699 -5 9.33398 -9.5 14.001 -13.5c5.33301 -4 10.5 -7.66699 15.5 -11s10.5 -6.66602 16.5 -9.99902c5.33301 -2.66699 11 -5.16699 17 -7.5s12 -4.16602 18 -5.49902s12.167 -2.33301 18.5 -3s12.833 -1 19.5 -1v2v0v0z" />
    <glyph glyph-name="q" unicode="q" horiz-adv-x="579" 
d="M526 547l0.000976562 -738.991h-63v294h-2c-3.33301 -8.66699 -7 -16.834 -11 -24.501s-8.66699 -14.834 -14 -21.501c-4.66699 -6.66699 -9.83398 -12.667 -15.501 -18s-11.834 -10.333 -18.501 -15s-13.667 -8.83398 -21 -12.501s-14.666 -6.83398 -21.999 -9.50098
c-3.33301 -0.666992 -6.83301 -1.5 -10.5 -2.5s-7.16699 -2.16699 -10.5 -3.5c-4 -0.666992 -7.83301 -1.5 -11.5 -2.5s-7.16699 -1.83301 -10.5 -2.5h-1.5h-0.5h-1.5h-1.5h-1.5c-0.333008 0 -0.833008 -0.333008 -1.5 -1h-1.5h-0.5h-0.5h-1.5h-2h-2h-1.5h-1.5h-2
c-0.666992 0 -1 -0.333008 -1 -1h-2h-2h-1.5h-1.5c-16.667 0 -33 1.66699 -49 5s-31.333 7.66602 -46 12.999c-14.667 6.66699 -28.834 15 -42.501 25s-26.834 21.667 -39.501 35s-23.667 27.666 -33 42.999s-17 31.333 -23 48c-6.66699 17.333 -11.5 35.166 -14.5 53.499
s-4.5 37.833 -4.5 58.5c0 9.33301 0.333008 18.5 1 27.5s1.66699 17.833 3 26.5s3 17.167 5 25.5s4.33301 16.5 7 24.5s5.33398 15.5 8.00098 22.5s5.33398 13.5 8.00098 19.5l9.5 16.5c3 5 5.83301 9.5 8.5 13.5v0v1v0v0l0.5 0.5l1.5 1.5v0l1 1v0v0l0.5 0.5l1.5 1.5
c6 9.33301 12.5 17.666 19.5 24.999l20.5 21c7.33301 6.66699 14.666 12.667 21.999 18s15 10 23 14c7.33301 4 14.833 7.5 22.5 10.5s15.5 5.83301 23.5 8.5c7.33301 2.66699 14.833 4.66699 22.5 6s15.5 2.33301 23.5 3h2h2h0.5h0.5h0.5h1.5h1.5h1.5h2h2h2.5h3.5
c0 -0.666992 0.166992 -1 0.5 -1h1.5h2h2h2.5h2.5c1.33301 -0.666992 2.5 -1 3.5 -1h3.5c2 -0.666992 4 -1.16699 6 -1.5s4 -0.5 6 -0.5c2.66699 0 5 -0.166992 7 -0.5s4 -0.833008 6 -1.5c6.66699 -1.33301 13.167 -3 19.5 -5s12.833 -4.66699 19.5 -8
c6.66699 -2.66699 13.167 -5.83398 19.5 -9.50098l19.5 -11.5l16.5 -14.5c5.66699 -5 10.834 -10.167 15.501 -15.5s9.16699 -11 13.5 -17s7.83301 -12.333 10.5 -19l2 2v94h60v0v0v0zM285.001 58.0088c3.33301 -0.666992 6.5 -1.00195 9.5 -1.00195h9.5
c2.66699 0 5.66699 0.333008 9 1s6.33301 1.33398 9 2.00098c3.33301 0.666992 6.33301 1.33398 9 2.00098s5.66699 1.66699 9 3c2.66699 1.33301 5.5 2.66602 8.5 3.99902s5.83301 2.66602 8.5 3.99902l16.5 10c5.66699 3.33301 11.167 7 16.5 11
c2.66699 2 5.16699 4.16699 7.5 6.5s4.83301 4.5 7.5 6.5c2 2.66699 4.16699 5.33398 6.5 8.00098s4.83301 5.33398 7.5 8.00098l12 16c4 5.33301 7.66699 11 11 17c0.666992 1.33301 1.33398 2.83301 2.00098 4.5s1.33398 3.16699 2.00098 4.5
c2 4.66699 3.83301 9.33398 5.5 14.001s3.16699 9.33398 4.5 14.001l4.5 19.5c1.66699 7 2.83398 13.833 3.50098 20.5c0 2.66699 0.166992 5.16699 0.5 7.5s0.5 4.5 0.5 6.5c0.666992 4.66699 1.16699 9.5 1.5 14.5s0.5 9.83301 0.5 14.5
c0 15.333 -1.16699 29.666 -3.5 42.999s-5.83301 26.333 -10.5 39s-10.334 24.667 -17.001 36s-14.667 22 -24 32s-19 18.833 -29 26.5s-20.667 13.834 -32 18.501c-10.667 5.33301 -21.834 9.16602 -33.501 11.499s-23.834 3.5 -36.501 3.5s-24.834 -1.33301 -36.501 -4
s-23.167 -6.66699 -34.5 -12c-10.667 -5.33301 -20.667 -12 -30 -20s-18.666 -17.333 -27.999 -28c-8.66699 -10.667 -16.5 -21.667 -23.5 -33s-12.5 -23.666 -16.5 -36.999c-4.66699 -12.667 -8.16699 -25.834 -10.5 -39.501s-3.5 -27.834 -3.5 -42.501
c0 -15.333 1.16699 -30 3.5 -44s5.83301 -27.667 10.5 -41c4 -12.667 9.5 -24.667 16.5 -36s15.167 -22 24.5 -32c8.66699 -10.667 18.167 -19.667 28.5 -27s20.833 -13.666 31.5 -18.999c11.333 -4.66699 23 -8.33398 35 -11.001s24.333 -4 37 -4v2v0v0z" />
    <glyph glyph-name="r" unicode="r" horiz-adv-x="255" 
d="M53 0l-0.00585938 547.003h60v-79h1c2.66699 7.33301 5.83398 14.333 9.50098 21s7.83398 13 12.501 19c4 5.33301 8.66699 10.333 14 15s11.333 8.66699 18 12c6 3.33301 12.167 6.33301 18.5 9s12.833 5 19.5 7c2.66699 0.666992 5 1.16699 7 1.5
s4.33301 0.833008 7 1.5l14 2c4.66699 0.666992 9.33398 1 14.001 1v-71c-2 -0.666992 -3.83301 -1.16699 -5.5 -1.5s-3.16699 -0.5 -4.5 -0.5c-2 -0.666992 -3.83301 -1.16699 -5.5 -1.5s-3.16699 -0.833008 -4.5 -1.5c-2 -0.666992 -3.66699 -1.16699 -5 -1.5
s-2.66602 -0.5 -3.99902 -0.5c-1.33301 -0.666992 -2.66602 -1.16699 -3.99902 -1.5s-2.66602 -0.833008 -3.99902 -1.5s-2.83301 -1.33398 -4.5 -2.00098s-3.16699 -1 -4.5 -1l-4 -2l-4 -2c-2.66699 -1.33301 -5.16699 -2.83301 -7.5 -4.5s-4.83301 -3.16699 -7.5 -4.5
l-1.5 -1.5l-0.5 -0.5c-0.666992 -0.666992 -1.16699 -1 -1.5 -1h-0.5l-1.5 -1.5l-0.5 -0.5l-1.5 -1.5l-0.5 -0.5c-0.666992 -0.666992 -1 -1.16699 -1 -1.5v-0.5c-0.666992 -0.666992 -1.16699 -1 -1.5 -1h-0.5c-0.666992 -0.666992 -1.33398 -1.16699 -2.00098 -1.5
l-1 -0.5c-0.666992 -0.666992 -1 -1.16699 -1 -1.5v-0.5c-1.33301 -0.666992 -2.66602 -1.5 -3.99902 -2.5s-2.33301 -2.16699 -3 -3.5l-2.5 -2.5c-1 -1 -1.83301 -2.16699 -2.5 -3.5l-1.5 -1.5l-1.5 -1.5c-0.666992 -0.666992 -1.16699 -1.33398 -1.5 -2.00098l-0.5 -1
c-0.666992 -0.666992 -1.16699 -1.33398 -1.5 -2.00098s-0.833008 -1.33398 -1.5 -2.00098l-1.5 -1.5c-0.333008 -0.333008 -0.5 -0.833008 -0.5 -1.5l-8 -13.5c-2.66699 -4.33301 -4.66699 -8.5 -6 -12.5c-2 -4 -3.66699 -8.16699 -5 -12.5s-2.33301 -8.83301 -3 -13.5
c0 -1.33301 -0.166992 -2.83301 -0.5 -4.5s-0.5 -3.16699 -0.5 -4.5c-0.666992 -3.33301 -1.16699 -6.66602 -1.5 -9.99902s-0.5 -7 -0.5 -11c-0.666992 -5.33301 -1 -11 -1 -17v-18v-304h-63v0v0v0z" />
    <glyph glyph-name="s" unicode="s" horiz-adv-x="329" 
d="M15 161h62.999v-2v-1v0v0v0v0v0v0v-1v0v0v0v-1.5v-0.5v0v0v0v0v0v0c0 -6.66699 0.333008 -13.167 1 -19.5s2.33398 -12.5 5.00098 -18.5c1.33301 -6 3.66602 -11.5 6.99902 -16.5s7 -10.167 11 -15.5c4 -4.66699 8.33301 -9 13 -13s9.33398 -7 14.001 -9
c5.33301 -2.66699 10.666 -4.5 15.999 -5.5s11 -1.5 17 -1.5c5.33301 0 10.666 0.5 15.999 1.5s10.333 2.5 15 4.5c3.33301 1.33301 6.5 2.83301 9.5 4.5s5.83301 3.83398 8.5 6.50098c1.33301 1.33301 2.83301 2.66602 4.5 3.99902s3.16699 2.66602 4.5 3.99902
c3.33301 4 6.5 8.5 9.5 13.5s5.83301 10.167 8.5 15.5c1.33301 5.33301 2.5 11.166 3.5 17.499s1.5 12.833 1.5 19.5c0 8 -0.5 15.667 -1.5 23s-2.5 14 -4.5 20c-2.66699 6 -5.66699 11.333 -9 16s-7.66602 9 -12.999 13l-14 10c-4.66699 3.33301 -9.66699 6.33301 -15 9
s-10.833 5.16699 -16.5 7.5l-16.5 6.5h-1.5h-2.5c-0.666992 0 -1.16699 0.166992 -1.5 0.5l-0.5 0.5l-0.5 0.5l-0.5 0.5h-1.5c-0.333008 0 -0.5 0.333008 -0.5 1c-0.666992 0 -1.16699 0.166992 -1.5 0.5s-0.833008 0.5 -1.5 0.5s-1.16699 0.166992 -1.5 0.5l-1.5 1.5
c-3.33301 1.33301 -6.5 2.5 -9.5 3.5s-6.16699 2.16699 -9.5 3.5c-2.66699 1.33301 -5.5 2.83301 -8.5 4.5s-5.83301 3.16699 -8.5 4.5s-5.5 3 -8.5 5s-5.83301 4 -8.5 6s-5.5 4.33301 -8.5 7s-5.5 5.33398 -7.5 8.00098c-3.33301 3.33301 -6.33301 6.83301 -9 10.5l-8 11.5
c-2.66699 4 -4.83398 8 -6.50098 12s-3.16699 8.33301 -4.5 13l-4 14c-1.33301 4.66699 -2.33301 9.33398 -3 14.001s-1.16699 9.5 -1.5 14.5s-0.5 9.83301 -0.5 14.5c0 11.333 0.666992 22 2 32s3.66602 19.333 6.99902 28c3.33301 9.33301 7.66602 18.166 12.999 26.499
s11.333 16.166 18 23.499s13.5 13.5 20.5 18.5s14.5 9.5 22.5 13.5c7.33301 3.33301 15.333 6 24 8s17.667 3 27 3c8.66699 0 17 -1 25 -3s16 -4.66699 24 -8c7.33301 -4 14.333 -8.66699 21 -14s13.334 -11.666 20.001 -18.999s12.334 -15 17.001 -23
s8.66699 -16.333 12 -25s5.66602 -17.667 6.99902 -27s2 -19 2 -29l-62 2c0 5.33301 -0.666992 10.5 -2 15.5l-4 14.5c-2 4.66699 -4.33301 9 -7 13s-5.66699 7.66699 -9 11c-2.66699 3.33301 -6 6.33301 -10 9s-8.33301 5 -13 7c-4 1.33301 -8.33301 2.5 -13 3.5
s-9.66699 1.5 -15 1.5c-4.66699 0 -9.16699 -0.5 -13.5 -1.5s-8.16602 -2.5 -11.499 -4.5c-4 -2 -7.66699 -4.33301 -11 -7s-6.66602 -5.66699 -9.99902 -9l-8 -12c-2.66699 -4 -4.66699 -8.33301 -6 -13s-2.33301 -9.33398 -3 -14.001s-1 -9.66699 -1 -15
c0 -7.33301 0.333008 -14.166 1 -20.499s2.33398 -12.166 5.00098 -17.499c2 -5.33301 4.66699 -10 8 -14s7 -7.66699 11 -11c1.33301 -0.666992 2.83301 -1.5 4.5 -2.5s3.16699 -2.16699 4.5 -3.5c2.66699 -2 5.5 -3.83301 8.5 -5.5s6.16699 -3.16699 9.5 -4.5
c4.66699 -2.66699 9.5 -5 14.5 -7s9.83301 -3.66699 14.5 -5c8.66699 -3.33301 17.167 -7 25.5 -11l24.5 -12c7.33301 -4.66699 14.5 -9.5 21.5 -14.5s13.5 -10.167 19.5 -15.5c6.66699 -5.33301 12.334 -11.5 17.001 -18.5s8.66699 -15.167 12 -24.5
c3.33301 -8.66699 5.83301 -18.5 7.5 -29.5s2.5 -22.5 2.5 -34.5c0 -12.667 -1 -25 -3 -37s-4.66699 -23 -8 -33c-2.66699 -10.667 -6.83398 -20.5 -12.501 -29.5s-11.834 -17.5 -18.501 -25.5c-7.33301 -8 -15 -15 -23 -21s-16.667 -10.333 -26 -13
c-8.66699 -4 -18 -7 -28 -9s-20.333 -3 -31 -3c-10 0 -19.333 1 -28 3s-17.334 5 -26.001 9c-8.66699 2.66699 -16.667 7 -24 13s-14.666 13.333 -21.999 22c-6.66699 8 -12.667 16.333 -18 25s-9.66602 18 -12.999 28c-3.33301 9.33301 -5.83301 19.333 -7.5 30
s-2.5 21.667 -2.5 33v0v0v0.5v1.5v0v0v0.5v1.5v0v0v0.5v1.5v0v0v0.5v1.5v2v0v0z" />
    <glyph glyph-name="t" unicode="t" horiz-adv-x="288" 
d="M107 0v480h-97v67h97v192h63v-192h107v-67h-107v-480h-63v0v0v0z" />
    <glyph glyph-name="u" unicode="u" horiz-adv-x="516" 
d="M463 547v-546.994h-60v85h-1c-4 -9.33301 -8.33301 -18 -13 -26s-9.66699 -15 -15 -21c-4.66699 -6.66699 -10 -12.5 -16 -17.5s-12.333 -9.16699 -19 -12.5s-13.667 -6 -21 -8l-22 -6c-7.33301 -2 -14.833 -3.5 -22.5 -4.5s-15.834 -1.5 -24.501 -1.5
c-6 0 -12 0.333008 -18 1s-12 1.66699 -18 3c-6 0.666992 -12 1.83398 -18 3.50098s-11.667 3.16699 -17 4.5c-5.33301 2 -10.833 4.66699 -16.5 8s-11.167 7 -16.5 11s-10.666 8.66699 -15.999 14s-10.666 11 -15.999 17l-4 4
c-1.33301 1.33301 -2.33301 2.66602 -3 3.99902c-1.33301 1.33301 -2.5 2.66602 -3.5 3.99902s-2.16699 2.66602 -3.5 3.99902s-2.5 2.66602 -3.5 3.99902s-2.16699 2.66602 -3.5 3.99902c-0.666992 1.33301 -1.5 2.83301 -2.5 4.5s-2.16699 3.16699 -3.5 4.5
c-3.33301 4 -6.5 8.66699 -9.5 14s-5.83301 11 -8.5 17s-4.5 12.333 -5.5 19s-2.16699 14 -3.5 22c-1.33301 7.33301 -2.33301 15 -3 23l-2 25c-0.666992 8.66699 -1 17.5 -1 26.5v26.5v291h63v-289v-17c0 -5.33301 0.333008 -10.666 1 -15.999
c0 -5.33301 0.166992 -10.5 0.5 -15.5s0.833008 -10.167 1.5 -15.5s1.5 -10.5 2.5 -15.5s2.16699 -10.167 3.5 -15.5c1.33301 -4.66699 2.83301 -9.33398 4.5 -14.001s3.83398 -9.33398 6.50098 -14.001c3.33301 -6.66699 6.83301 -12.667 10.5 -18l11.5 -16l14 -13.5
c4.66699 -4.33301 9.66699 -8.16602 15 -11.499s10.833 -6.33301 16.5 -9s11.5 -4.66699 17.5 -6c6 -2 12 -3.33301 18 -4s12.333 -1 19 -1c5.33301 0 10.833 0.333008 16.5 1s10.834 1.66699 15.501 3c5.33301 1.33301 10.666 3.16602 15.999 5.49902
s10.666 4.83301 15.999 7.5l13.5 10c4.33301 3.33301 8.83301 7 13.5 11c4 4 8 8.5 12 13.5s7.66699 10.167 11 15.5c3.33301 4.66699 6.16602 9.5 8.49902 14.5s4.16602 10.167 5.49902 15.5c2 5.33301 3.83301 10.666 5.5 15.999s2.83398 11 3.50098 17
c0.666992 5.33301 1.16699 10.833 1.5 16.5s0.833008 11.5 1.5 17.5s1.16699 12 1.5 18s0.5 12 0.5 18v291h63v0v0v0z" />
    <glyph glyph-name="v" unicode="v" horiz-adv-x="470" 
d="M202 0l-196 547h68l161 -453l161 453h68l-197 -547h-65v0v0v0z" />
    <glyph glyph-name="w" unicode="w" horiz-adv-x="706" 
d="M181 0l-176 547h67l146 -458l108 391h52l107 -391l149 458h66l-177 -547h-72l-100 363l-97 -363h-73v0v0v0z" />
    <glyph glyph-name="x" unicode="x" horiz-adv-x="408" 
d="M6 0l159 278l-159 269h74l124 -211l123 211h74l-160 -269l160 -278h-74l-123 219l-124 -219h-74v0v0v0z" />
    <glyph glyph-name="y" unicode="y" horiz-adv-x="455" 
d="M380 547h67l-268 -739h-66l73 209l-179 530h67l149 -436l157 436v0v0v0z" />
    <glyph glyph-name="z" unicode="z" horiz-adv-x="361" 
d="M8 0v65l252 415h-243v67h319v-67l-250 -413h266v-67h-344v0v0v0z" />
    <glyph glyph-name="braceleft" unicode="{" horiz-adv-x="298" 
d="M101 419l0.00292969 168.988c0 12.667 0.333008 24.5 1 35.5s2.33398 21.167 5.00098 30.5c1.33301 9.33301 3.5 18 6.5 26s6.5 15 10.5 21s9 11.333 15 16s12.667 8.33398 20 11.001c8 3.33301 16.833 5.66602 26.5 6.99902s20.5 2 32.5 2h1.5h1.5h0.5h1.5h1.5h1.5h2h2
c-6.66699 -2.66699 -12.667 -5.5 -18 -8.5s-10 -6.16699 -14 -9.5c-4.66699 -3.33301 -8.83398 -7 -12.501 -11s-6.83398 -8.33301 -9.50098 -13s-4.83398 -9.66699 -6.50098 -15s-3.16699 -11 -4.5 -17c-0.666992 -6 -1.33398 -12.5 -2.00098 -19.5s-1 -14.167 -1 -21.5
v-176c0 -10 -0.333008 -19.333 -1 -28s-1.66699 -16.667 -3 -24c-0.666992 -7.33301 -1.83398 -14.333 -3.50098 -21s-3.83398 -13 -6.50098 -19c-2 -6 -4.83301 -11.667 -8.5 -17s-8.16699 -10 -13.5 -14s-11.333 -7.66699 -18 -11s-14.334 -6 -23.001 -8
c8 -2 15.333 -4.5 22 -7.5s12.334 -6.16699 17.001 -9.5c5.33301 -3.33301 9.83301 -7.16602 13.5 -11.499s6.83398 -9.16602 9.50098 -14.499s4.83398 -11 6.50098 -17s3.16699 -12.667 4.5 -20c1.33301 -6.66699 2.33301 -14 3 -22s1 -16.333 1 -25v-189
c0 -6.66699 0.333008 -13.5 1 -20.5l2 -20.5c1.33301 -6 2.66602 -11.667 3.99902 -17s3.33301 -10.333 6 -15s5.66699 -9 9 -13s7.33301 -7.66699 12 -11c4 -3.33301 9 -6.33301 15 -9s12.333 -5.33398 19 -8.00098h-4.5h-4.5h-2.5h-2.5c-2 0.666992 -4.16699 1 -6.5 1
h-6.5c-4.66699 0 -9 0.166992 -13 0.5s-8 0.833008 -12 1.5c-2 0 -4 0.333008 -6 1s-3.66699 1 -5 1l-6 2c-2 0.666992 -4 1.66699 -6 3c-4 2 -7.83301 4.33301 -11.5 7s-7.16699 5.66699 -10.5 9c-3.33301 2.66699 -6.5 5.83398 -9.5 9.50098s-5.5 7.16699 -7.5 10.5
s-3.66699 7 -5 11l-4 12c-0.666992 4.66699 -1.5 9.16699 -2.5 13.5s-1.83301 8.5 -2.5 12.5s-1 8.16699 -1 12.5v13.5v1.5v1.5v1.5v0.5v0.5v1.5v1.5v1.5v192v2.5v2.5v2v2v1v2c0 0.666992 -0.166992 1.33398 -0.5 2.00098s-0.5 1.33398 -0.5 2.00098v1v2v3.5v2.5
c0 2 -0.166992 4 -0.5 6s-0.833008 4 -1.5 6s-1.16699 4 -1.5 6s-0.5 4 -0.5 6c-0.666992 1.33301 -1.16699 2.5 -1.5 3.5s-0.833008 1.83301 -1.5 2.5c-0.666992 1.33301 -1.16699 2.5 -1.5 3.5s-0.833008 1.83301 -1.5 2.5c0 1.33301 -0.166992 2.5 -0.5 3.5
s-1.16602 1.83301 -2.49902 2.5c-0.666992 0.666992 -1.16699 1.33398 -1.5 2.00098s-0.5 1.33398 -0.5 2.00098s-0.166992 1.33398 -0.5 2.00098s-0.833008 1.33398 -1.5 2.00098l-6 6c-2 2 -3.66699 4 -5 6c-0.666992 1.33301 -1.66699 2.33301 -3 3
s-2.33301 1.33398 -3 2.00098c-1.33301 1.33301 -2.5 2.33301 -3.5 3s-2.16699 1.33398 -3.5 2.00098c-2 1.33301 -4 2.5 -6 3.5s-4.66699 1.83301 -8 2.5c-1.33301 0.666992 -2.5 1.16699 -3.5 1.5s-2.16699 0.5 -3.5 0.5c-1.33301 0.666992 -2.5 1.16699 -3.5 1.5
s-2.16699 0.5 -3.5 0.5c1.33301 0.666992 2.66602 1.16699 3.99902 1.5s2.66602 0.5 3.99902 0.5c0.666992 0.666992 1.33398 1.16699 2.00098 1.5s1.33398 0.5 2.00098 0.5l4 2l4 2c0.666992 0 1.33398 0.333008 2.00098 1s1.33398 1 2.00098 1
c1.33301 1.33301 3 2.5 5 3.5s4 2.16699 6 3.5c0.666992 0.666992 1.5 1.33398 2.5 2.00098s1.83301 1.33398 2.5 2.00098s1.5 1.33398 2.5 2.00098s1.83301 1.33398 2.5 2.00098c3.33301 2.66699 6.16602 5.5 8.49902 8.5s4.16602 6.16699 5.49902 9.5
c2 3.33301 3.5 6.66602 4.5 9.99902s1.83301 6.66602 2.5 9.99902s1.16699 6.83301 1.5 10.5s0.833008 7.5 1.5 11.5v6c0 2 0.333008 4 1 6v6.5v6.5v0v0v0v1v0v0v0v0v0v0v0.5v1.5v2v0v0z" />
    <glyph glyph-name="bar" unicode="|" horiz-adv-x="571" 
d="M258 0v739h54v-739h-54v0v0v0z" />
    <glyph glyph-name="braceright" unicode="}" horiz-adv-x="298" 
d="M97 446l0.00878906 178.003c0 7.33301 -0.333008 14.166 -1 20.499s-1.66699 12.5 -3 18.5s-2.83301 11.667 -4.5 17s-3.5 10.333 -5.5 15c-2.66699 4.66699 -5.66699 9 -9 13s-7.33301 7.66699 -12 11c-4 3.33301 -8.5 6.5 -13.5 9.5s-10.5 5.83301 -16.5 8.5h0.5h1.5v0
h1v0h1h0.5h1.5h0.5h0.5h0.5h1.5h2h2c11.333 0 21.666 -0.666992 30.999 -2s18 -3.66602 26 -6.99902c7.33301 -2.66699 13.833 -6.33398 19.5 -11.001s10.5 -10 14.5 -16c3.33301 -6 6.5 -13 9.5 -21s5.5 -16.667 7.5 -26c1.33301 -9.33301 2.5 -19.666 3.5 -30.999
s1.5 -23.666 1.5 -36.999v-167v-14c0 -4.66699 0.333008 -9 1 -13c0 -4 0.333008 -8 1 -12s1.33398 -7.66699 2.00098 -11c0.666992 -4 1.5 -7.66699 2.5 -11s2.5 -6.66602 4.5 -9.99902c1.33301 -3.33301 3.33301 -6.5 6 -9.5s5.66699 -6.16699 9 -9.5
c1.33301 -1.33301 2.83301 -2.66602 4.5 -3.99902s3.16699 -2.66602 4.5 -3.99902c1.33301 -0.666992 2.33301 -1.33398 3 -2.00098s1.66699 -1.33398 3 -2.00098c0.666992 -0.666992 1.5 -1.16699 2.5 -1.5s1.83301 -0.833008 2.5 -1.5c2 -0.666992 4 -1.5 6 -2.5
s4 -2.16699 6 -3.5l6 -2l6 -2c-2.66699 -0.666992 -5.16699 -1.16699 -7.5 -1.5s-4.5 -1.16602 -6.5 -2.49902c-2.66699 -0.666992 -5.16699 -1.5 -7.5 -2.5s-4.5 -2.16699 -6.5 -3.5s-4 -2.83301 -6 -4.5s-4 -3.5 -6 -5.5l-2.5 -2.5c-1 -1 -1.83301 -2.16699 -2.5 -3.5
c-1.33301 -0.666992 -2.33301 -1.5 -3 -2.5s-1.66699 -2.16699 -3 -3.5c-0.666992 -0.666992 -1.16699 -1.33398 -1.5 -2.00098s-0.5 -1.33398 -0.5 -2.00098c-0.666992 -0.666992 -1.16699 -1.33398 -1.5 -2.00098s-0.833008 -1.33398 -1.5 -2.00098
s-1.16699 -1.33398 -1.5 -2.00098s-0.5 -1.33398 -0.5 -2.00098l-0.5 -0.5c-0.333008 -0.333008 -0.5 -0.833008 -0.5 -1.5c-0.666992 -0.666992 -1.33398 -1.5 -2.00098 -2.5s-1.33398 -2.16699 -2.00098 -3.5c-0.666992 -0.666992 -1 -1.5 -1 -2.5v-3.5
c-0.666992 -2 -1.5 -4 -2.5 -6s-1.83301 -4 -2.5 -6s-1 -4 -1 -6v-6v-3v-3v-3.5v-3.5v-6.5v-7.5v-188v-2.5v-2.5v-1.5v-0.5v-0.5v-1.5v-1.5v-1.5c0 -4.66699 -0.166992 -9.16699 -0.5 -13.5s-0.833008 -8.5 -1.5 -12.5l-2 -12.5l-2 -13.5
c-0.666992 -4 -1.83398 -8 -3.50098 -12s-3.83398 -7.66699 -6.50098 -11c-2 -3.33301 -4.33301 -6.83301 -7 -10.5s-5.66699 -6.83398 -9 -9.50098c-0.666992 0 -1.16699 -0.166992 -1.5 -0.5s-0.5 -0.833008 -0.5 -1.5c-0.666992 0 -1.16699 -0.166992 -1.5 -0.5
l-1.5 -1.5c-0.666992 0 -1.16699 -0.166992 -1.5 -0.5s-0.5 -0.833008 -0.5 -1.5c-0.666992 0 -1.16699 -0.166992 -1.5 -0.5l-1.5 -1.5c-0.666992 -0.666992 -1.5 -1.16699 -2.5 -1.5s-1.83301 -0.833008 -2.5 -1.5c-0.666992 0 -1.5 -0.166992 -2.5 -0.5
s-1.83301 -0.833008 -2.5 -1.5s-1.5 -1.16699 -2.5 -1.5s-1.83301 -0.833008 -2.5 -1.5c-1.33301 0 -2.33301 -0.166992 -3 -0.5s-1.33398 -0.833008 -2.00098 -1.5c-1.33301 -0.666992 -2.83301 -1.16699 -4.5 -1.5s-3.5 -0.833008 -5.5 -1.5h-2.5
c-1 0 -1.83301 -0.333008 -2.5 -1c-0.666992 0 -1.5 -0.166992 -2.5 -0.5s-1.83301 -0.5 -2.5 -0.5c-3.33301 -0.666992 -6.83301 -1.16699 -10.5 -1.5s-7.16699 -0.5 -10.5 -0.5h-6c-2 0 -4 -0.333008 -6 -1h-5.5h-5.5c6.66699 2.66699 12.667 5.33398 18 8.00098
s10 5.66699 14 9c4.66699 3.33301 8.5 7 11.5 11s5.83301 8.33301 8.5 13c2 4.66699 3.83301 9.66699 5.5 15s3.16699 11 4.5 17c1.33301 6.66699 2.16602 13.5 2.49902 20.5s0.5 14.167 0.5 21.5v190c0 8 0.333008 15.833 1 23.5s1.66699 14.834 3 21.501
c0.666992 7.33301 2 14 4 20s4.33301 11.667 7 17s5.83398 10.166 9.50098 14.499s8.16699 8.16602 13.5 11.499s11.166 6.5 17.499 9.5s13.5 5.5 21.5 7.5c-8.66699 2 -16.334 4.66699 -23.001 8s-12.667 7 -18 11c-4.66699 4 -9 8.66699 -13 14s-7 11 -9 17
c-2.66699 6 -4.83398 12.333 -6.50098 19s-2.83398 13.667 -3.50098 21c-1.33301 7.33301 -2.33301 15.333 -3 24s-1 17.334 -1 26.001v2v0v0z" />
    <glyph glyph-name="asciitilde" unicode="~" horiz-adv-x="515" 
d="M436 391l35.0205 -47.0049c-0.666992 -0.666992 -1 -1.33398 -1 -2.00098v-2v-1.5v-0.5l-1.5 -1.5l-0.5 -0.5v-0.5v-0.5l-1 -1v0c-3.33301 -6.66699 -6.83301 -13 -10.5 -19l-10.5 -18c-1.33301 -2 -2.83301 -4 -4.5 -6s-3.16699 -4 -4.5 -6
c-2.66699 -4 -5.5 -7.83301 -8.5 -11.5s-6.16699 -7.16699 -9.5 -10.5c-4.66699 -5.33301 -9.5 -10 -14.5 -14s-10.5 -7.33301 -16.5 -10s-12 -4.66699 -18 -6s-12.333 -2 -19 -2h-7c-2 0 -4 0.333008 -6 1h-3c-1.33301 0 -2.33301 0.333008 -3 1
c-1.33301 0 -2.5 0.166992 -3.5 0.5s-2.16699 0.833008 -3.5 1.5c-0.666992 0 -1.83398 0.166992 -3.50098 0.5s-3.16699 0.833008 -4.5 1.5l-1 0.5l-1 0.5c-0.666992 0.666992 -1.33398 1.16699 -2.00098 1.5s-1.33398 0.5 -2.00098 0.5l-4.5 1.5
c-1 0.333008 -2.16699 0.833008 -3.5 1.5c-0.666992 0 -1.33398 0.166992 -2.00098 0.5s-1.33398 0.833008 -2.00098 1.5c-0.666992 0 -1.33398 0.166992 -2.00098 0.5s-1.33398 0.5 -2.00098 0.5h-0.5c-0.333008 0 -0.5 0.333008 -0.5 1h-0.5h-0.5
c-0.666992 0 -1.33398 0.166992 -2.00098 0.5s-1 0.833008 -1 1.5h-1.5h-1.5c-0.666992 0 -1.16699 0.166992 -1.5 0.5l-1.5 1.5c-0.666992 0.666992 -1.5 1.16699 -2.5 1.5s-2.16699 0.833008 -3.5 1.5c-0.666992 0.666992 -1.33398 1.16699 -2.00098 1.5l-3 1.5
c-0.666992 0 -1.5 0.166992 -2.5 0.5s-1.83301 0.833008 -2.5 1.5c-1.33301 0 -2.33301 0.166992 -3 0.5l-3 1.5c-0.666992 0.666992 -1.16699 1 -1.5 1s-0.833008 0.333008 -1.5 1h-1l-1 1c-0.666992 0 -1.33398 0.166992 -2.00098 0.5s-1.33398 0.833008 -2.00098 1.5
c-2 0.666992 -3.83301 1.33398 -5.5 2.00098s-3.16699 1.33398 -4.5 2.00098c-0.666992 0.666992 -1.33398 1.16699 -2.00098 1.5s-1 0.833008 -1 1.5c-0.666992 0 -1.33398 0.166992 -2.00098 0.5s-1.33398 0.833008 -2.00098 1.5h-1.5h-0.5h-1v1h-1v0h-0.5
c-0.333008 0 -0.5 0.333008 -0.5 1h-1v0h-1.5h-0.5c-0.666992 0 -1 0.166992 -1 0.5v1.5h-1v0c-0.666992 0 -1.16699 0.166992 -1.5 0.5s-0.5 0.833008 -0.5 1.5c-0.666992 0 -1.33398 0.166992 -2.00098 0.5s-1.33398 0.833008 -2.00098 1.5
c-0.666992 0 -1.33398 0.166992 -2.00098 0.5s-1.33398 0.5 -2.00098 0.5s-1.33398 0.166992 -2.00098 0.5s-1 0.833008 -1 1.5c-0.666992 0 -1.33398 0.166992 -2.00098 0.5s-1.33398 0.833008 -2.00098 1.5c-1.33301 0 -2.5 0.333008 -3.5 1
s-2.16699 1.33398 -3.5 2.00098c-0.666992 0 -1.33398 0.166992 -2.00098 0.5s-1.33398 0.833008 -2.00098 1.5c-0.666992 0 -1.33398 0.166992 -2.00098 0.5s-1.33398 0.5 -2.00098 0.5s-1.33398 0.166992 -2.00098 0.5s-1 0.833008 -1 1.5
c-0.666992 0 -1.33398 0.166992 -2.00098 0.5s-1.33398 0.5 -2.00098 0.5c-1.33301 0 -2.66602 0.166992 -3.99902 0.5s-2.33301 0.833008 -3 1.5h-4.5h-3.5h-2c-0.666992 0 -1.33398 0.333008 -2.00098 1h-2h-2c-4.66699 0 -9 -0.5 -13 -1.5s-8 -2.5 -12 -4.5
s-7.66699 -4.33301 -11 -7s-6.33301 -5.66699 -9 -9l-8.5 -10.5c-3 -3.66699 -5.83301 -7.5 -8.5 -11.5l-4 -6c-1.33301 -2 -2.33301 -4 -3 -6l-3.5 -7c-1 -2 -2.16699 -4 -3.5 -6c-0.666992 -0.666992 -1.16699 -1.5 -1.5 -2.5s-0.833008 -2.16699 -1.5 -3.5
c0 -0.666992 -0.166992 -1.5 -0.5 -2.5s-0.833008 -1.83301 -1.5 -2.5s-1.16699 -1.5 -1.5 -2.5s-0.833008 -2.16699 -1.5 -3.5c0 -0.666992 -0.166992 -1.16699 -0.5 -1.5l-0.5 -0.5c0 -0.666992 -0.166992 -1.16699 -0.5 -1.5l-0.5 -0.5l-35 50l0.5 0.5l1.5 1.5v1.5
c0 0.333008 0.333008 0.833008 1 1.5c0 0.666992 0.166992 1.33398 0.5 2.00098s0.833008 1.33398 1.5 2.00098c0 0.666992 0.166992 1.33398 0.5 2.00098s0.833008 1.33398 1.5 2.00098l9.5 19c3 6 6.5 12 10.5 18s8.16699 11.833 12.5 17.5s8.83301 11.167 13.5 16.5
c4 5.33301 8.5 10 13.5 14s10.5 7.33301 16.5 10c5.33301 2.66699 11.333 4.66699 18 6s13.334 2 20.001 2h4c1.33301 0 3 -0.333008 5 -1c1.33301 0 2.66602 -0.166992 3.99902 -0.5s2.66602 -0.5 3.99902 -0.5c3.33301 -0.666992 6.5 -1.16699 9.5 -1.5
s5.83301 -1.16602 8.5 -2.49902c1.33301 -0.666992 2.83301 -1.33398 4.5 -2.00098s3.16699 -1 4.5 -1c1.33301 -0.666992 2.83301 -1.33398 4.5 -2.00098s3.5 -1.33398 5.5 -2.00098c3.33301 -0.666992 6.5 -1.83398 9.5 -3.50098s6.16699 -3.16699 9.5 -4.5
c0.666992 -0.666992 1.33398 -1.16699 2.00098 -1.5s1.33398 -0.833008 2.00098 -1.5l1 -0.5l1 -0.5c0.666992 0 1.33398 -0.166992 2.00098 -0.5s1.33398 -0.5 2.00098 -0.5c0 -0.666992 0.333008 -1.16699 1 -1.5s1.33398 -0.5 2.00098 -0.5
c0.666992 -0.666992 1.33398 -1.16699 2.00098 -1.5s1.33398 -0.5 2.00098 -0.5l0.5 -0.5l0.5 -0.5h0.5h1.5l1.5 -1.5c0.333008 -0.333008 0.833008 -0.5 1.5 -0.5c0.666992 -0.666992 1.33398 -1.16699 2.00098 -1.5s1.33398 -0.5 2.00098 -0.5c4 -2.66699 8 -5 12 -7
s8.33301 -4 13 -6l12 -6c4 -2 7.66699 -3.66699 11 -5c4 -2 7.83301 -3.66699 11.5 -5l10.5 -4c1.33301 -0.666992 2.66602 -1.16699 3.99902 -1.5s3 -0.5 5 -0.5h4h4c4 0 8 0.333008 12 1s7.66699 1.66699 11 3s6.5 3.33301 9.5 6s6.16699 5.66699 9.5 9
s6.33301 6.66602 9 9.99902l8 10c2.66699 3.33301 5.16699 7 7.5 11s4.83301 8 7.5 12c0.666992 0.666992 1.16699 1.33398 1.5 2.00098s0.833008 1.33398 1.5 2.00098c0.666992 1.33301 1.16699 2.5 1.5 3.5s0.5 1.83301 0.5 2.5v0.5c0 0.333008 0.333008 0.833008 1 1.5
v0.5v0.5l0.5 1c0.333008 0.666992 0.833008 1.33398 1.5 2.00098v0l1 1v0.5v0.5c0 0.666992 0.166992 1.16699 0.5 1.5l1.5 1.5v2v0v0z" />
    <glyph glyph-name="exclamdown" unicode="&#xa1;" horiz-adv-x="250" 
d="M94 -192v548h63v-548h-63v0v0v0zM94 421v126h63v-126h-63v0v0v0z" />
    <glyph glyph-name="cent" unicode="&#xa2;" horiz-adv-x="470" 
d="M221 62l0.000976562 88.9961c-13.333 0 -26 1.66699 -38 5s-23.333 8 -34 14s-21 13.5 -31 22.5s-19.333 19.5 -28 31.5c-8.66699 11.333 -16.334 23.333 -23.001 36s-12 25.667 -16 39c-4.66699 13.333 -8 27.166 -10 41.499s-3 28.833 -3 43.5s1 28.834 3 42.501
s5.33301 26.834 10 39.501s10.334 25 17.001 37s14.667 23.667 24 35s19 21.166 29 29.499s20.333 15.5 31 21.5s21.667 10.833 33 14.5s23.333 5.83398 36 6.50098v95h56v-93c8.66699 -2 17.167 -4.5 25.5 -7.5s16.5 -6.5 24.5 -10.5s15.833 -8.66699 23.5 -14
s15.167 -11.666 22.5 -18.999c7.33301 -6.66699 14 -14 20 -22s11.333 -16 16 -24c5.33301 -8.66699 9.83301 -17.5 13.5 -26.5s6.83398 -18.5 9.50098 -28.5l-70 2c-2.66699 6 -5.83398 11.667 -9.50098 17s-7.83398 10.333 -12.501 15c-4 5.33301 -8.5 10 -13.5 14
s-10.167 7.66699 -15.5 11s-10.833 6.16602 -16.5 8.49902s-11.5 4.5 -17.5 6.5c-2.66699 0.666992 -5.66699 1.33398 -9 2.00098s-6.33301 1.33398 -9 2.00098c-3.33301 0 -6.5 0.166992 -9.5 0.5s-6.16699 0.5 -9.5 0.5c-9.33301 0 -18.333 -1 -27 -3s-17 -5 -25 -9
s-15.667 -8.83301 -23 -14.5s-14.666 -12.167 -21.999 -19.5c-6.66699 -7.33301 -12.834 -15.166 -18.501 -23.499s-10.167 -17.166 -13.5 -26.499s-5.83301 -19 -7.5 -29s-2.5 -20.333 -2.5 -31c0 -11.333 0.833008 -22.333 2.5 -33s4.16699 -20.667 7.5 -30
s7.66602 -18.333 12.999 -27s11.333 -17 18 -25c7.33301 -8 14.666 -15 21.999 -21s15.333 -11 24 -15c8 -4 16.5 -7 25.5 -9s18.5 -3 28.5 -3c5.33301 0 10.833 0.333008 16.5 1s11.167 1.66699 16.5 3c2.66699 0.666992 5.33398 1.5 8.00098 2.5
s5.33398 2.16699 8.00098 3.5c2 1.33301 4.33301 2.66602 7 3.99902l8 4c5.33301 3.33301 10.333 6.66602 15 9.99902s9 7 13 11c4.66699 4 9 8.5 13 13.5l12 15.5l68 2c-2.66699 -10 -6 -19.333 -10 -28s-8.33301 -17 -13 -25s-10 -15.5 -16 -22.5s-12.667 -13.5 -20 -19.5
c-2.66699 -2 -5.16699 -4 -7.5 -6s-4.83301 -4 -7.5 -6c-4.66699 -4 -9.5 -7.5 -14.5 -10.5s-10.167 -5.83301 -15.5 -8.5c-7.33301 -4 -14.833 -7.16699 -22.5 -9.5s-15.5 -4.16602 -23.5 -5.49902v-87h-56v0v0v0z" />
    <glyph glyph-name="sterling" unicode="&#xa3;" horiz-adv-x="470" 
d="M49 0v67.0039h118c2 1.33301 4 3.16602 6 5.49902s4 4.83301 6 7.5c1.33301 2.66699 2.83301 5.5 4.5 8.5s2.83398 6.16699 3.50098 9.5l4 10c1.33301 3.33301 2.33301 6.66602 3 9.99902c1.33301 3.33301 2.33301 6.83301 3 10.5l2 10.5v2
c0 0.666992 0.333008 1.66699 1 3v2.5v2.5c0 1.33301 0.166992 2.83301 0.5 4.5s0.833008 3.5 1.5 5.5v2v2v1.5c0 0.333008 0.333008 0.833008 1 1.5v1.5v1.5v0.5c0 0.333008 0.333008 0.833008 1 1.5v0.5v1.5v1.5v1.5v0.5v1.5c-0.666992 8.66699 -1.5 17 -2.5 25
s-2.16699 15.667 -3.5 23c-2 7.33301 -4.16699 14.333 -6.5 21s-5.16602 13 -8.49902 19l-10.5 16.5c-3.66699 5.66699 -7.83398 11.5 -12.501 17.5c-4 5.33301 -8.33301 10.833 -13 16.5s-9.66699 11.167 -15 16.5h-0.5c-0.333008 0 -0.5 0.333008 -0.5 1h-1v0v0.5v1.5
h-1.5h-0.5c-0.666992 0 -1.16699 0.166992 -1.5 0.5s-0.5 0.833008 -0.5 1.5l-1.5 1.5c-0.333008 0.333008 -0.5 0.833008 -0.5 1.5l-1.5 1.5l-1.5 1.5l-106 2v67h62c-1.33301 3.33301 -2.5 6.66602 -3.5 9.99902s-2.16699 6.66602 -3.5 9.99902
c-0.666992 3.33301 -1.5 7 -2.5 11s-2.16699 8 -3.5 12c-0.666992 3.33301 -1.33398 7 -2.00098 11l-2 12c-0.666992 4 -1 8 -1 12v12v4v4v4v4v4.5c0 1.66699 0.333008 3.16699 1 4.5c0 1.33301 0.166992 2.83301 0.5 4.5s0.833008 3.16699 1.5 4.5
c0 2.66699 0.166992 5.33398 0.5 8.00098s0.833008 5.33398 1.5 8.00098c0.666992 3.33301 1.33398 6.5 2.00098 9.5s1.33398 5.83301 2.00098 8.5s1.5 5.33398 2.5 8.00098s1.83301 5.33398 2.5 8.00098c0 1.33301 0.333008 2.66602 1 3.99902s1 3 1 5l2 4l2 4
c2 5.33301 4.16699 10.666 6.5 15.999s4.83301 10.333 7.5 15c2.66699 5.33301 5.33398 10.166 8.00098 14.499s5.66699 8.83301 9 13.5c4.66699 7.33301 9.66699 14 15 20s10.666 11.667 15.999 17c6 5.33301 12.333 10.166 19 14.499s13.334 8.16602 20.001 11.499
s13.5 6.33301 20.5 9s13.833 5 20.5 7c7.33301 2 14.833 3.5 22.5 4.5s15.5 1.83301 23.5 2.5c12.667 -0.666992 25 -2.33398 37 -5.00098s23.667 -6.66699 35 -12c11.333 -4.66699 22.166 -10.834 32.499 -18.501s20.5 -16.5 30.5 -26.5s18.833 -20.667 26.5 -32
s14.5 -23.333 20.5 -36s10.833 -25.667 14.5 -39s5.83398 -27.333 6.50098 -42l-59 2c-1.33301 9.33301 -3.5 18.333 -6.5 27s-6.83301 17 -11.5 25c-4 8 -8.66699 15.833 -14 23.5s-11.666 14.834 -18.999 21.501c-6.66699 6.66699 -13.667 12.5 -21 17.5
s-14.666 9.16699 -21.999 12.5c-8 3.33301 -16 6 -24 8s-16.333 3 -25 3c-10.667 0 -20.834 -1.16699 -30.501 -3.5s-18.834 -5.5 -27.501 -9.5s-16.834 -9.16699 -24.501 -15.5s-14.834 -13.5 -21.501 -21.5c-7.33301 -8.66699 -13.833 -17.667 -19.5 -27
s-10.167 -19 -13.5 -29s-5.83301 -20.667 -7.5 -32s-2.16699 -23 -1.5 -35v-1.5v-0.5v0v0v-1v0v-1.5v-0.5v0v0v-1v0v-1.5v-1.5v-1.5v-1.5v-1.5v-1.5v-1.5v-1.5c0 -3.33301 0.166992 -6.66602 0.5 -9.99902s0.833008 -6.66602 1.5 -9.99902s1.5 -6.66602 2.5 -9.99902
s1.83301 -6.66602 2.5 -9.99902s1.5 -6.5 2.5 -9.5s2.5 -6.16699 4.5 -9.5c1.33301 -2.66699 2.66602 -5.5 3.99902 -8.5s3.33301 -5.83301 6 -8.5l241 2v-67h-182c3.33301 -4 6.16602 -8 8.49902 -12s4.83301 -8 7.5 -12c1.33301 -2 2.66602 -4.16699 3.99902 -6.5
s2.66602 -4.5 3.99902 -6.5c3.33301 -6.66699 6.83301 -13.167 10.5 -19.5s6.83398 -13.166 9.50098 -20.499l4 -10.5l4 -10.5c0.666992 -4 1.5 -7.83301 2.5 -11.5s1.83301 -7.16699 2.5 -10.5c1.33301 -7.33301 2.33301 -14.833 3 -22.5s1 -15.167 1 -22.5v-15.5
c0 -5 -0.333008 -10.167 -1 -15.5c-0.666992 -4.66699 -1.5 -9.5 -2.5 -14.5s-1.83301 -9.83301 -2.5 -14.5c-0.666992 -1.33301 -1.16699 -2.83301 -1.5 -4.5s-0.833008 -3.5 -1.5 -5.5c-0.666992 -3.33301 -1.5 -6.5 -2.5 -9.5s-2.16699 -6.16699 -3.5 -9.5
c-0.666992 -2 -1.5 -4.16699 -2.5 -6.5s-1.83301 -4.5 -2.5 -6.5c-0.666992 -2.66699 -1.5 -5.16699 -2.5 -7.5s-1.83301 -4.5 -2.5 -6.5l21 2l1.5 -1.5c0.333008 -0.333008 0.833008 -0.5 1.5 -0.5h0.5h0.5h0.5h0.5h0.5h1.5h0.5h1.5v0h1v0h1h15.5
c5 0 9.83301 0.333008 14.5 1c5.33301 0 10.5 0.166992 15.5 0.5s9.83301 0.833008 14.5 1.5s9.33398 1.66699 14.001 3s9.33398 3 14.001 5s9.33398 4.33301 14.001 7s9.33398 5.66699 14.001 9l10.5 11l10.5 12c3.33301 4 6.33301 8.5 9 13.5s5 10.167 7 15.5l6 16
c2 5.33301 3.33301 10.666 4 15.999c1.33301 5.33301 2.33301 11 3 17s1 12 1 18v0v1v0v0v0.5v1.5v0v1v0v0v0.5v1.5v2v2v2v2v2v2v2v2c-0.666992 1.33301 -1.16699 2.66602 -1.5 3.99902s-0.5 2.66602 -0.5 3.99902v4v4c-0.666992 1.33301 -1.16699 2.83301 -1.5 4.5
s-0.5 2.83398 -0.5 3.50098v4c0 1.33301 -0.333008 2.66602 -1 3.99902l61 2c0.666992 -2.66699 1.16699 -5.33398 1.5 -8.00098s0.5 -5.33398 0.5 -8.00098c0.666992 -2.66699 1.16699 -5.16699 1.5 -7.5s0.833008 -4.83301 1.5 -7.5v-4c0 -1.33301 0.333008 -2.33301 1 -3
v-3.5v-3.5v-4c0 -1.33301 0.333008 -2.33301 1 -3v-3.5v-3.5c0 -8.66699 -0.5 -17 -1.5 -25s-2.16699 -15.667 -3.5 -23c-1.33301 -8 -3 -15.5 -5 -22.5s-4.66699 -14.167 -8 -21.5c-2.66699 -6.66699 -5.83398 -13.334 -9.50098 -20.001s-7.5 -13 -11.5 -19
c-4.66699 -6 -9.33398 -11.667 -14.001 -17s-9.66699 -10.666 -15 -15.999c-6 -5.33301 -12 -10.166 -18 -14.499s-12 -8.16602 -18 -11.499c-2.66699 -1.33301 -5.66699 -2.66602 -9 -3.99902s-6.33301 -2.33301 -9 -3c-3.33301 -1.33301 -6.5 -2.33301 -9.5 -3
s-6.16699 -1.33398 -9.5 -2.00098c-6.66699 -1.33301 -13.167 -2.5 -19.5 -3.5s-12.833 -1.5 -19.5 -1.5c-6.66699 -0.666992 -13.5 -1 -20.5 -1h-20.5h-233v0v0v0z" />
    <glyph glyph-name="currency" unicode="&#xa4;" horiz-adv-x="470" 
d="M26 110l35.999 42c-0.666992 0.666992 -1.16699 1.5 -1.5 2.5s-1.16602 1.83301 -2.49902 2.5c-0.666992 0.666992 -1.16699 1.33398 -1.5 2.00098s-0.5 1.33398 -0.5 2.00098s-0.166992 1.16699 -0.5 1.5l-0.5 0.5l-1.5 1.5c-0.333008 0.333008 -0.5 0.833008 -0.5 1.5
c-0.666992 0.666992 -1.16699 1.33398 -1.5 2.00098s-0.5 1.33398 -0.5 2.00098v0v1c-0.666992 0 -1 0.166992 -1 0.5v1.5v0.5v1.5c-0.666992 0 -1 0.166992 -1 0.5v0.5c-2.66699 4.66699 -5 9.33398 -7 14.001s-3.66699 9.33398 -5 14.001
c-0.666992 2 -1.16699 3.83301 -1.5 5.5s-0.833008 3.16699 -1.5 4.5c-1.33301 3.33301 -2.5 6.66602 -3.5 9.99902s-1.83301 6.66602 -2.5 9.99902c-0.666992 4.66699 -1.5 9.5 -2.5 14.5s-1.83301 10.167 -2.5 15.5s-1 10.833 -1 16.5v17.5v16.5v16.5
c0 2.66699 0.333008 5.33398 1 8.00098s1 5.33398 1 8.00098c0.666992 2 1.33398 4.33301 2.00098 7l2 8c0.666992 4.66699 1.66699 9.33398 3 14.001l4 14c1.33301 2.66699 2.33301 5.16699 3 7.5s1.66699 4.83301 3 7.5c0.666992 2 1.5 4.16699 2.5 6.5
s1.83301 4.83301 2.5 7.5c0.666992 1.33301 1.33398 2.5 2.00098 3.5s1.33398 1.83301 2.00098 2.5l2 4l2 4c0.666992 1.33301 1.16699 2.66602 1.5 3.99902s0.833008 2.66602 1.5 3.99902c1.33301 1.33301 2.33301 2.66602 3 3.99902l2 4l-36 45l44 53l37 -43
c5.33301 3.33301 10.5 6.83301 15.5 10.5s9.83301 6.83398 14.5 9.50098c5.33301 3.33301 10.666 6.16602 15.999 8.49902s11 4.5 17 6.5c5.33301 2 10.833 3.83301 16.5 5.5s11.5 2.83398 17.5 3.50098c5.33301 1.33301 10.833 2.16602 16.5 2.49902s11.5 0.5 17.5 0.5
c5.33301 0 10.833 -0.333008 16.5 -1s11.5 -1.66699 17.5 -3l8 -2l8 -2c2 -0.666992 4.33301 -1.33398 7 -2.00098s5.33398 -1.66699 8.00098 -3l15.5 -7.5c5 -2.33301 9.83301 -5.16602 14.5 -8.49902c2.66699 -1.33301 5.16699 -2.83301 7.5 -4.5l7.5 -5.5l6.5 -4.5
l7.5 -5.5l38 45l44 -53l-36 -43c0 -2 0.333008 -3.5 1 -4.5s1.33398 -2.16699 2.00098 -3.5c0.666992 -0.666992 1.16699 -1.5 1.5 -2.5s0.833008 -2.16699 1.5 -3.5c0 -0.666992 0.166992 -1.16699 0.5 -1.5l1.5 -1.5c0 -0.666992 0.166992 -1.16699 0.5 -1.5l1.5 -1.5
v-1.5c0 -0.333008 0.333008 -0.833008 1 -1.5v-1.5c0 -0.333008 0.333008 -0.833008 1 -1.5c2.66699 -5.33301 5.16699 -10.666 7.5 -15.999s4.16602 -10.666 5.49902 -15.999l2 -8c0.666992 -2.66699 1.66699 -5 3 -7l2 -8l2 -8c0.666992 -5.33301 1.5 -10.833 2.5 -16.5
s1.83301 -11.167 2.5 -16.5v-8.5c0 -3 0.333008 -6.16699 1 -9.5v-8.5v-9.5v-8v-8c-0.666992 -2 -1 -4.33301 -1 -7v-7c-0.666992 -2.66699 -1.16699 -5.16699 -1.5 -7.5s-0.5 -4.5 -0.5 -6.5c-0.666992 -2.66699 -1.16699 -5.16699 -1.5 -7.5s-0.833008 -4.5 -1.5 -6.5
s-1.33398 -4.16699 -2.00098 -6.5s-1 -4.5 -1 -6.5c-0.666992 -2.66699 -1.33398 -5 -2.00098 -7l-2 -6c-0.666992 -2 -1.5 -4.16699 -2.5 -6.5s-1.83301 -4.5 -2.5 -6.5l-2 -6c-0.666992 -2 -1.66699 -4 -3 -6c-0.666992 -1.33301 -1.33398 -2.83301 -2.00098 -4.5
s-1.66699 -3.16699 -3 -4.5c-0.666992 -1.33301 -1.16699 -2.66602 -1.5 -3.99902s-0.833008 -2.66602 -1.5 -3.99902c-0.666992 -0.666992 -1.16699 -1.33398 -1.5 -2.00098s-0.833008 -1.33398 -1.5 -2.00098s-1 -1.33398 -1 -2.00098v-2
c-0.666992 -0.666992 -1.33398 -1.5 -2.00098 -2.5s-1 -1.83301 -1 -2.5c-0.666992 -0.666992 -1.16699 -1.33398 -1.5 -2.00098s-0.5 -1.33398 -0.5 -2.00098l36 -40l-44 -53l-38 43c-2.66699 -2.66699 -5.16699 -5 -7.5 -7s-4.5 -4 -6.5 -6
c-2.66699 -2 -5.16699 -4 -7.5 -6s-4.83301 -3.66699 -7.5 -5l-10.5 -6l-11.5 -6c-2 -0.666992 -3.83301 -1.33398 -5.5 -2.00098s-3.5 -1.33398 -5.5 -2.00098c-5.33301 -2 -10.833 -3.66699 -16.5 -5l-17.5 -4c-5.33301 -0.666992 -11 -1.33398 -17 -2.00098
s-12 -1 -18 -1s-11.833 0.333008 -17.5 1l-16.5 2l-16 4c-5.33301 1.33301 -10.666 3.33301 -15.999 6c-4.66699 2 -9.5 4.5 -14.5 7.5l-14.5 8.5c-2.66699 1.33301 -5.16699 2.83301 -7.5 4.5s-4.5 3.5 -6.5 5.5c-2.66699 1.33301 -5.16699 3 -7.5 5s-4.83301 4 -7.5 6
l-37 -41l-44 53v0v0v0zM386.999 303c0 11.333 -1.00098 22.3281 -3.00098 32.9951s-4.66699 21 -8 31s-7.66602 20 -12.999 30s-11.333 19.333 -18 28c-7.33301 9.33301 -15 17.166 -23 23.499s-16.333 11.833 -25 16.5s-17.667 8.16699 -27 10.5s-19 3.5 -29 3.5h-1.5h-0.5
v0v0v0v0v0v0h-1v0v0v0v0v0v0v0v0v0v0v0v0v0v0v0h-1v0v0v0h-1.5h-0.5v0v0v0v0v0v0c-10.667 0 -21 -1.16699 -31 -3.5s-19.667 -5.5 -29 -9.5c-8.66699 -4 -17.167 -9.16699 -25.5 -15.5s-16.166 -13.833 -23.499 -22.5c-6.66699 -8.66699 -12.834 -17.667 -18.501 -27
s-10.167 -19.333 -13.5 -30c-4 -10.667 -6.83301 -21.667 -8.5 -33s-2.5 -23.333 -2.5 -36v-1.5v-0.5v0v0v-1.5v-0.5v0v0v0v0v0v0v-1v0v0v0v0v0v0v0v-1v0v0v0v-1.5v-0.5v0v0v0v0v0v0c0 -12 0.833008 -23.5 2.5 -34.5s4.5 -21.5 8.5 -31.5c3.33301 -10 8 -19.667 14 -29
s12.667 -18.333 20 -27s15 -16.167 23 -22.5s16.333 -11.833 25 -16.5s17.834 -8 27.501 -10s19.5 -3 29.5 -3c11.333 0 21.833 1 31.5 3s18.834 5.33301 27.501 10c9.33301 4.66699 18.166 10.334 26.499 17.001s16.166 14.334 23.499 23.001s13.833 17.834 19.5 27.501
s10.167 19.834 13.5 30.501c4 10.667 7 21.834 9 33.501s3 23.834 3 36.501v2v0v0z" />
    <glyph glyph-name="yen" unicode="&#xa5;" horiz-adv-x="470" 
d="M220 0v237h-175v62h150l-43 97h-113v62h85l-124 281h68l184 -415l179 415h69l-123 -281h84v-62h-112l-42 -97h148v-62h-172v-237h-63v0v0v0z" />
    <glyph glyph-name="brokenbar" unicode="&#xa6;" 
 />
    <glyph glyph-name="section" unicode="&#xa7;" horiz-adv-x="522" 
d="M409 606l-59.0039 0.000976562c-0.666992 4 -1.5 8 -2.5 12s-2.16699 8 -3.5 12l-6.5 10.5c-2.33301 3.66699 -5.16602 6.83398 -8.49902 9.50098c-2.66699 3.33301 -5.66699 6.16602 -9 8.49902s-6.66602 4.5 -9.99902 6.5c-2 1.33301 -3.83301 2.33301 -5.5 3
s-3.5 1.33398 -5.5 2.00098s-3.83301 1.33398 -5.5 2.00098s-3.5 1.33398 -5.5 2.00098h-2c-0.666992 0 -1.33398 0.333008 -2.00098 1h-1.5h-1.5c-0.666992 0 -1.5 0.166992 -2.5 0.5s-1.83301 0.833008 -2.5 1.5h-2h-2h-1.5c-0.333008 0 -0.5 0.333008 -0.5 1h-2h-2h-0.5
h-1.5h-1.5h-0.5v0v0v0v0v0v0h-1.5h-0.5v0v0v0v0v0v0v0v0v0v0h-1.5h-0.5v0v0h-1v0h-1.5h-0.5v0v0c-6 0 -11.667 -0.666992 -17 -2s-10.333 -3 -15 -5s-9.16699 -4.5 -13.5 -7.5s-8.16602 -6.5 -11.499 -10.5c-4 -4 -7.5 -8.5 -10.5 -13.5s-5.16699 -10.167 -6.5 -15.5
c-2.66699 -6 -4.33398 -12 -5.00098 -18s-1 -12.667 -1 -20c0 -6 0.166992 -11.667 0.5 -17s1.5 -10.333 3.5 -15c1.33301 -4.66699 3.16602 -8.83398 5.49902 -12.501s4.83301 -7.16699 7.5 -10.5c3.33301 -3.33301 6.66602 -6.5 9.99902 -9.5
s6.66602 -5.83301 9.99902 -8.5l10.5 -8c3.66699 -2.66699 7.5 -5 11.5 -7l107 -61c0.666992 -0.666992 1.16699 -1.33398 1.5 -2.00098s0.833008 -1.33398 1.5 -2.00098l0.5 -0.5l0.5 -0.5c0 -0.666992 0.166992 -1 0.5 -1h0.5v0h1c0 -0.666992 0.166992 -1 0.5 -1h0.5h0.5
h1.5v-1h1v0h1l17.5 -12c5.66699 -4 11.167 -8.33301 16.5 -13l16.5 -14c5.66699 -4.66699 11.167 -9.66699 16.5 -15s9.83301 -11 13.5 -17s6.83398 -12.667 9.50098 -20c2.66699 -6.66699 4.5 -14 5.5 -22s1.5 -16.667 1.5 -26v-2v-2v-2v-2
c-0.666992 -0.666992 -1 -1.5 -1 -2.5v-2.5v-2v-2v-1.5v-0.5c-0.666992 -0.666992 -1 -1.16699 -1 -1.5v-0.5v-2v-2v-1.5v-1.5c-0.666992 -0.666992 -1 -1.16699 -1 -1.5v-0.5v-2v-2c-1.33301 -5.33301 -2.83301 -10.833 -4.5 -16.5s-3.5 -11.167 -5.5 -16.5
s-4.16699 -10.5 -6.5 -15.5s-5.16602 -10.167 -8.49902 -15.5c-2.66699 -4.66699 -5.66699 -9.33398 -9 -14.001s-6.66602 -9 -9.99902 -13c-2.66699 -4 -6 -7.66699 -10 -11s-8 -6.33301 -12 -9c3.33301 -2.66699 6.16602 -5.66699 8.49902 -9
s4.83301 -6.66602 7.5 -9.99902s5 -6.83301 7 -10.5l6 -11.5c1.33301 -2 2.33301 -4 3 -6l2 -6c0 -1.33301 0.166992 -2.33301 0.5 -3s0.5 -1.33398 0.5 -2.00098c0.666992 -1.33301 1.16699 -2.66602 1.5 -3.99902s0.833008 -2.66602 1.5 -3.99902
c0.666992 -2 1.16699 -4 1.5 -6s0.833008 -4 1.5 -6c0.666992 -2.66699 1.16699 -5 1.5 -7s0.833008 -4 1.5 -6v-1.5v-0.5v-1.5v-1.5v-2v-2v-1.5v-0.5v-1.5c0 -0.333008 0.333008 -0.5 1 -0.5v-1.5v-0.5v-1.5v-0.5c0 -13.333 -1.16699 -25.833 -3.5 -37.5
s-5.16602 -22.834 -8.49902 -33.501c-4.66699 -10.667 -10 -20.667 -16 -30s-12.667 -18 -20 -26c-8 -8 -16.5 -15 -25.5 -21s-18.167 -11 -27.5 -15s-19.166 -7 -29.499 -9s-21.166 -3 -32.499 -3c-12 0 -23.667 1.16699 -35 3.5s-22.333 6.16602 -33 11.499
c-10 4.66699 -19.667 10.834 -29 18.501s-18 16.167 -26 25.5c-8 10 -15 20.5 -21 31.5s-11.333 22.167 -16 33.5c-4 10.667 -7.16699 22.5 -9.5 35.5s-3.5 26.833 -3.5 41.5l59 2c0 -10 0.833008 -19.333 2.5 -28s3.83398 -16.667 6.50098 -24s6 -14.333 10 -21
s8.33301 -13.334 13 -20.001c5.33301 -6.66699 10.666 -12.5 15.999 -17.5s11.333 -8.83301 18 -11.5c6 -3.33301 12.667 -5.83301 20 -7.5s15 -2.5 23 -2.5v0h1v0v0h0.5h1.5v0v0h0.5h1.5h0.5h1.5h0.5h1.5v0v0h0.5h1.5v0v0h0.5h1.5c4.66699 0 8.83398 0.333008 12.501 1
l11.5 2l6 2l6 2c5.33301 2.66699 10.5 5.66699 15.5 9s9.83301 7.33301 14.5 12s8.66699 9.66699 12 15s6.33301 11 9 17c2.66699 4.66699 4.5 10.667 5.5 18s1.5 15.333 1.5 24c0 5.33301 -0.5 10.666 -1.5 15.999s-2.16699 10.333 -3.5 15s-3.33301 9 -6 13
s-5.66699 7.66699 -9 11l-3.5 3.5l-3.5 3.5c-2.66699 2 -5.16699 4.16699 -7.5 6.5l-6.5 6.5c-3.33301 3.33301 -7 6.33301 -11 9l-12 8c-0.666992 0 -1.16699 0.166992 -1.5 0.5l-1.5 1.5c-0.666992 0 -1.33398 0.166992 -2.00098 0.5s-1 0.833008 -1 1.5h-1.5
c-0.333008 0 -0.833008 0.333008 -1.5 1c-0.666992 0 -1.16699 0.166992 -1.5 0.5s-0.5 0.833008 -0.5 1.5c-0.666992 0 -1.33398 0.166992 -2.00098 0.5s-1.33398 0.833008 -2.00098 1.5c-0.666992 0 -1.16699 0.166992 -1.5 0.5s-0.5 0.833008 -0.5 1.5h-2
c-0.666992 0 -1.33398 0.333008 -2.00098 1c-0.666992 0 -1.16699 0.166992 -1.5 0.5s-0.5 0.833008 -0.5 1.5l-138 86c-4.66699 2 -9.33398 4.5 -14.001 7.5s-8.66699 6.5 -12 10.5c-4.66699 3.33301 -8.66699 7 -12 11s-6.66602 8.33301 -9.99902 13
c-2.66699 4.66699 -5.16699 9.5 -7.5 14.5s-4.16602 10.167 -5.49902 15.5c-2 5.33301 -3.33301 11.166 -4 17.499s-1 12.833 -1 19.5c0 8 0.5 16 1.5 24s2.5 15.333 4.5 22c1.33301 7.33301 3.33301 14.333 6 21s5.66699 13.334 9 20.001c3.33301 6 7 12 11 18
s8.33301 11.667 13 17c4 5.33301 8.5 10.666 13.5 15.999s10.5 10.333 16.5 15c-0.666992 0.666992 -1.16699 1.33398 -1.5 2.00098s-0.833008 1.33398 -1.5 2.00098c-1.33301 1.33301 -2.5 2.83301 -3.5 4.5s-1.83301 3.16699 -2.5 4.5c-1.33301 2 -2.83301 4.5 -4.5 7.5
s-3.16699 5.83301 -4.5 8.5c0 0.666992 -0.333008 1.5 -1 2.5s-1 1.83301 -1 2.5l-2 6l-2 6c-1.33301 3.33301 -2.5 6.5 -3.5 9.5s-1.5 5.83301 -1.5 8.5c-0.666992 1.33301 -1.16699 2.83301 -1.5 4.5s-0.833008 3.16699 -1.5 4.5s-1 2.83301 -1 4.5v4.5v0.5v1.5
c-0.666992 0 -1 0.166992 -1 0.5v1.5v2.5v2.5v2v2v2v2c0 11.333 1 22.333 3 33s4.33301 21 7 31c3.33301 10 7.83301 19.333 13.5 28s12.167 16.667 19.5 24c6.66699 7.33301 14 13.833 22 19.5s16.333 10.5 25 14.5c8.66699 3.33301 17.334 6 26.001 8s18 3 28 3h1.5h0.5h2
h2c0 -0.666992 0.166992 -1 0.5 -1h1.5h2h2h1.5h0.5h2h2l0.5 -0.5l0.5 -0.5h0.5h1.5h2h2c4 -0.666992 7.83301 -1.5 11.5 -2.5s7.16699 -2.16699 10.5 -3.5s6.83301 -2.83301 10.5 -4.5l11.5 -5.5c7.33301 -4 14.333 -8.5 21 -13.5s13.334 -10.5 20.001 -16.5
c6.66699 -6.66699 12.5 -13.5 17.5 -20.5s9.16699 -14.5 12.5 -22.5s5.83301 -16.5 7.5 -25.5s2.83398 -18.5 3.50098 -28.5v2v0v0zM188.996 270.001l151.001 -88.0029c1.33301 0.666992 2.5 1.33398 3.5 2.00098s2.16699 1.33398 3.5 2.00098l3.5 3.5l3.5 3.5l3.5 3.5
l3.5 3.5c1.33301 2 2.5 3.66699 3.5 5s2.16699 3 3.5 5c1.33301 1.33301 2.33301 2.83301 3 4.5s1.66699 3.5 3 5.5c0.666992 1.33301 1.5 2.83301 2.5 4.5s1.83301 3.5 2.5 5.5s1.33398 3.83301 2.00098 5.5s1.33398 3.5 2.00098 5.5c0 1.33301 0.333008 3 1 5l2 6v3.5v2.5
c0 1.33301 0.166992 2.5 0.5 3.5s0.833008 1.83301 1.5 2.5v1.5v1.5v1.5c0 0.333008 0.333008 0.833008 1 1.5v1.5v1.5v1.5v1.5c0 6 -0.333008 11.833 -1 17.5s-1.66699 10.834 -3 15.501c-2 4.66699 -4 9 -6 13s-4.33301 7.33301 -7 10
c-2.66699 3.33301 -5.83398 6.5 -9.50098 9.5l-10.5 8.5c-3.33301 3.33301 -6.83301 6.16602 -10.5 8.49902l-11.5 7.5h-1.5h-0.5v0v0c-0.666992 0 -1 0.166992 -1 0.5v0.5h-1.5h-0.5v0v1c-0.666992 0 -1 0.166992 -1 0.5v0.5l-139 85
c-3.33301 -2.66699 -6.66602 -5.66699 -9.99902 -9l-10 -10c-2.66699 -3.33301 -5.33398 -7 -8.00098 -11s-5 -8 -7 -12c-2.66699 -4.66699 -4.83398 -9.16699 -6.50098 -13.5s-3.16699 -8.83301 -4.5 -13.5s-2.33301 -9.16699 -3 -13.5l-2 -13.5v-1.5v-1.5v-1.5v-1.5v-1.5
v-0.5v-1.5v-0.5c0 -5.33301 0.333008 -10.333 1 -15s1.66699 -9 3 -13s3.16602 -7.66699 5.49902 -11s4.83301 -6.66602 7.5 -9.99902l8.5 -8.5c3 -3 6.16699 -5.83301 9.5 -8.5l9.5 -7.5c3 -2.33301 6.5 -4.5 10.5 -6.5v2v0v0z" />
    <glyph glyph-name="dieresis" unicode="&#xa8;" horiz-adv-x="313" 
d="M62 739h63v-126h-63v126v0v0v0zM187 739h63v-126h-63v126v0v0v0z" />
    <glyph glyph-name="copyright" unicode="&#xa9;" horiz-adv-x="634" 
d="M317 -13c-22.667 0.666992 -44.334 3.16699 -65.001 7.5s-40.667 10.833 -60 19.5c-19.333 9.33301 -37.666 20.833 -54.999 34.5s-34 29.834 -50 48.501c-15.333 18.667 -29 38.334 -41 59.001s-21.667 42.334 -29 65.001c-8 22.667 -13.5 46.167 -16.5 70.5
s-4.5 49.833 -4.5 76.5c0 26 1.5 51.167 4.5 75.5s8.5 47.833 16.5 70.5c7.33301 22.667 17 44.167 29 64.5s25.667 39.833 41 58.5c16 18.667 32.667 35 50 49s35.666 25.667 54.999 35s39.333 16.333 60 21s42.334 7 65.001 7s44.334 -2.33301 65.001 -7
s40.667 -11.667 60 -21s37.666 -21 54.999 -35s33.666 -30.333 48.999 -49c16 -18.667 29.833 -38.167 41.5 -58.5s21.5 -41.833 29.5 -64.5s14 -46.167 18 -70.5s6 -49.5 6 -75.5c0 -26.667 -2 -52.167 -6 -76.5s-10 -47.833 -18 -70.5s-17.833 -44.334 -29.5 -65.001
s-25.5 -40.334 -41.5 -59.001c-15.333 -18.667 -31.666 -34.834 -48.999 -48.501s-35.666 -25.167 -54.999 -34.5c-19.333 -8.66699 -39.333 -15.167 -60 -19.5s-42.334 -6.5 -65.001 -6.5v-1v0v0zM317 33c20 -0.666992 39 0.833008 57 4.5s35.333 9.5 52 17.5
c17.333 8 33.666 18.167 48.999 30.5s30 26.833 44 43.5c13.333 16.667 25.333 34 36 52s19.334 37 26.001 57c7.33301 20 12.666 40.833 15.999 62.5s5 44.167 5 67.5s-1.66699 45.5 -5 66.5s-8.66602 41.5 -15.999 61.5c-6.66699 20 -15.334 39 -26.001 57
s-22.667 35.333 -36 52c-14 16 -28.667 30.167 -44 42.5s-31.666 22.5 -48.999 30.5c-16.667 8 -34 14.167 -52 18.5s-37 6.5 -57 6.5s-39 -2.16699 -57 -6.5s-35.333 -10.5 -52 -18.5s-32.834 -18.167 -48.501 -30.5s-30.5 -26.5 -44.5 -42.5
c-14 -16.667 -26.167 -34 -36.5 -52s-19.166 -37 -26.499 -57c-6.66699 -20 -11.667 -40.5 -15 -61.5s-5 -43.167 -5 -66.5s1.66699 -45.833 5 -67.5s8.33301 -42.5 15 -62.5c7.33301 -20 16.166 -39 26.499 -57s22.5 -35.333 36.5 -52s28.833 -31.167 44.5 -43.5
s31.834 -22.5 48.501 -30.5s34 -14 52 -18s37 -6 57 -6v2v0v0zM436 300l46.002 -0.00390625c-0.666992 -12 -2.33398 -23.167 -5.00098 -33.5s-6.33398 -20.166 -11.001 -29.499c-4 -8.66699 -8.83301 -17 -14.5 -25s-12.167 -15.333 -19.5 -22s-14.833 -12.5 -22.5 -17.5
s-15.834 -9.16699 -24.501 -12.5s-17.334 -5.83301 -26.001 -7.5s-17.667 -2.5 -27 -2.5c-13.333 0 -26.166 1.33301 -38.499 4s-24.166 6.66699 -35.499 12c-10.667 5.33301 -20.834 11.833 -30.501 19.5s-18.5 16.834 -26.5 27.501c-8.66699 10.667 -16 22 -22 34
s-11 24.333 -15 37c-4.66699 13.333 -7.83398 27.166 -9.50098 41.499s-2.5 29.5 -2.5 45.5c0 15.333 0.833008 30.333 2.5 45s4.83398 28.334 9.50098 41.001c3.33301 13.333 8 25.833 14 37.5s13 22.834 21 33.501c8 10 16.667 19 26 27s19.333 14.333 30 19
c11.333 5.33301 23 9.33301 35 12s25 4 39 4c10 0 19.5 -0.833008 28.5 -2.5s17.833 -4.16699 26.5 -7.5c8.66699 -2.66699 16.834 -6.5 24.501 -11.5s14.834 -10.5 21.501 -16.5c7.33301 -6.66699 13.833 -13.667 19.5 -21s10.5 -15.666 14.5 -24.999
c4.66699 -8.66699 8.5 -18 11.5 -28s5.16699 -20.667 6.5 -32l-46 2c-1.33301 7.33301 -3 14.166 -5 20.499s-4.66699 12.5 -8 18.5s-7 11.5 -11 16.5s-8.33301 9.83301 -13 14.5s-9.83398 8.66699 -15.501 12s-11.167 6 -16.5 8c-6 2 -12 3.66699 -18 5s-12.333 2 -19 2
c-10.667 0 -20.834 -1.16699 -30.501 -3.5s-18.5 -5.5 -26.5 -9.5s-15.5 -9.16699 -22.5 -15.5s-13.167 -13.833 -18.5 -22.5s-10 -17.667 -14 -27s-7.33301 -19 -10 -29c-2.66699 -10.667 -4.83398 -21.5 -6.50098 -32.5s-2.5 -22.167 -2.5 -33.5s0.833008 -22.5 2.5 -33.5
s3.83398 -21.5 6.50098 -31.5c2.66699 -10.667 6.16699 -20.667 10.5 -30s9.5 -18.666 15.5 -27.999c5.33301 -8.66699 11.5 -16.5 18.5 -23.5s14.833 -12.5 23.5 -16.5c8 -4.66699 16.667 -8 26 -10s19.333 -3 30 -3c6.66699 0 13 0.5 19 1.5s11.667 2.83301 17 5.5
c5.33301 2 10.833 4.66699 16.5 8s10.834 7.33301 15.501 12c5.33301 4.66699 10 9.66699 14 15s7.33301 11 10 17c3.33301 6 6 12.667 8 20s3.33301 15 4 23v2v0v0z" />
    <glyph glyph-name="ordfeminine" unicode="&#xaa;" horiz-adv-x="313" 
d="M26 369h262v-44h-262v44v0v0v0zM288 745l-0.000976562 -291.996h-38v44h-1c-1.33301 -2.66699 -2.66602 -5 -3.99902 -7l-4 -6c-2 -2 -3.66699 -4 -5 -6s-2.66602 -3.66699 -3.99902 -5c-3.33301 -3.33301 -6.83301 -6.33301 -10.5 -9s-7.5 -5 -11.5 -7
c-4 -2.66699 -8 -4.66699 -12 -6l-12 -4l-13.5 -2c-4.33301 -0.666992 -8.83301 -1 -13.5 -1c-8.66699 0 -17.334 0.833008 -26.001 2.5s-16.667 4.16699 -24 7.5c-8 3.33301 -15.5 7.83301 -22.5 13.5s-13.833 12.167 -20.5 19.5s-12.667 15.166 -18 23.499
s-9.66602 16.833 -12.999 25.5c-3.33301 9.33301 -5.66602 18.833 -6.99902 28.5s-2 19.834 -2 30.501c0 11.333 0.666992 22 2 32s3.66602 19.333 6.99902 28c3.33301 9.33301 7.33301 18.166 12 26.499s10.334 16.166 17.001 23.499s13.5 13.666 20.5 18.999
s14.5 10 22.5 14c7.33301 3.33301 15.5 6 24.5 8s17.833 3 26.5 3v0h1v0v0h0.5h1.5v0v0h0.5h1.5h0.5h0.5h0.5h0.5h1.5h1.5c3.33301 -0.666992 7 -1.33398 11 -2.00098s8 -1.66699 12 -3l11 -4.5c4 -1.66699 8 -3.5 12 -5.5c3.33301 -2 6.66602 -4.16699 9.99902 -6.5
s6.33301 -5.16602 9 -8.49902c3.33301 -2.66699 6.16602 -5.83398 8.49902 -9.50098l7.5 -11.5l1 2v45h38v0v0v0zM157.999 708.004c-6.66699 -0.666992 -13.001 -1.83301 -19.001 -3.5s-11.667 -3.83398 -17 -6.50098s-10.5 -6.16699 -15.5 -10.5
s-10.167 -9.16602 -15.5 -14.499c-4.66699 -5.33301 -8.66699 -11 -12 -17s-6.33301 -12 -9 -18c-2.66699 -6.66699 -4.5 -13.5 -5.5 -20.5s-1.5 -14.167 -1.5 -21.5c0 -8 0.5 -15.5 1.5 -22.5s2.83301 -13.833 5.5 -20.5s5.83398 -12.667 9.50098 -18
s7.83398 -10.666 12.501 -15.999c5.33301 -5.33301 10.5 -10 15.5 -14s10.5 -7.33301 16.5 -10c5.33301 -2.66699 11 -4.5 17 -5.5s12 -1.5 18 -1.5s11.833 0.666992 17.5 2s11.167 3.33301 16.5 6s10.5 6 15.5 10s9.83301 8.66699 14.5 14s8.5 10.833 11.5 16.5
s5.83301 11.5 8.5 17.5s4.5 12.5 5.5 19.5s1.5 14.167 1.5 21.5s-0.5 14.5 -1.5 21.5s-2.83301 13.833 -5.5 20.5s-5.5 13 -8.5 19s-6.5 11.667 -10.5 17c-2.66699 4 -5.83398 7.5 -9.50098 10.5s-7.16699 5.5 -10.5 7.5c-1.33301 1.33301 -2.83301 2.66602 -4.5 3.99902
s-3.5 2.33301 -5.5 3c-5.33301 2.66699 -11 4.66699 -17 6s-12.333 2 -19 2v2v0v0z" />
    <glyph glyph-name="guillemotleft" unicode="&#xab;" horiz-adv-x="361" 
d="M130 101l-96 200l96 199l49 -31l-80 -168l80 -168l-49 -32v0v0v0zM277 101l-96 200l96 199l50 -31l-80 -168l80 -168l-50 -32v0v0v0z" />
    <glyph glyph-name="logicalnot" unicode="&#xac;" 
 />
    <glyph glyph-name="sfthyphen" unicode="&#xad;" horiz-adv-x="425" 
 />
    <glyph glyph-name="registered" unicode="&#xae;" horiz-adv-x="634" 
d="M317 -13c-22.667 0.666992 -44.334 3.16699 -65.001 7.5s-40.667 10.833 -60 19.5c-19.333 9.33301 -37.666 20.833 -54.999 34.5s-34 29.834 -50 48.501c-15.333 18.667 -29 38.334 -41 59.001s-21.667 42.334 -29 65.001c-8 22.667 -13.5 46.167 -16.5 70.5
s-4.5 49.833 -4.5 76.5c0 26 1.5 51.167 4.5 75.5s8.5 47.833 16.5 70.5c7.33301 22.667 17 44.167 29 64.5s25.667 39.833 41 58.5c16 18.667 32.667 35 50 49s35.666 25.667 54.999 35s39.333 16.333 60 21s42.334 7 65.001 7s44.334 -2.33301 65.001 -7
s40.667 -11.667 60 -21s37.666 -21 54.999 -35s33.666 -30.333 48.999 -49c16 -18.667 29.833 -38.167 41.5 -58.5s21.5 -41.833 29.5 -64.5s14 -46.167 18 -70.5s6 -49.5 6 -75.5c0 -26.667 -2 -52.167 -6 -76.5s-10 -47.833 -18 -70.5s-17.833 -44.334 -29.5 -65.001
s-25.5 -40.334 -41.5 -59.001c-15.333 -18.667 -31.666 -34.834 -48.999 -48.501s-35.666 -25.167 -54.999 -34.5c-19.333 -8.66699 -39.333 -15.167 -60 -19.5s-42.334 -6.5 -65.001 -6.5v-1v0v0zM317 33c20 -0.666992 39 0.833008 57 4.5s35.333 9.5 52 17.5
c17.333 8 33.666 18.167 48.999 30.5s30 26.833 44 43.5c13.333 16.667 25.333 34 36 52s19.334 37 26.001 57c7.33301 20 12.666 40.833 15.999 62.5s5 44.167 5 67.5s-1.66699 45.5 -5 66.5s-8.66602 41.5 -15.999 61.5c-6.66699 20 -15.334 39 -26.001 57
s-22.667 35.333 -36 52c-14 16 -28.667 30.167 -44 42.5s-31.666 22.5 -48.999 30.5c-16.667 8 -34 14.167 -52 18.5s-37 6.5 -57 6.5s-39 -2.16699 -57 -6.5s-35.333 -10.5 -52 -18.5s-32.834 -18.167 -48.501 -30.5s-30.5 -26.5 -44.5 -42.5
c-14 -16.667 -26.167 -34 -36.5 -52s-19.166 -37 -26.499 -57c-6.66699 -20 -11.667 -40.5 -15 -61.5s-5 -43.167 -5 -66.5s1.66699 -45.833 5 -67.5s8.33301 -42.5 15 -62.5c7.33301 -20 16.166 -39 26.499 -57s22.5 -35.333 36.5 -52s28.833 -31.167 44.5 -43.5
s31.834 -22.5 48.501 -30.5s34 -14 52 -18s37 -6 57 -6v2v0v0zM369 353l110.001 -197h-53l-103 197h-82v-197h-44v427h158c1.33301 -0.666992 3 -1.16699 5 -1.5s4 -0.5 6 -0.5h2.5h3.5c0 -0.666992 0.166992 -1 0.5 -1h1.5h2h2c0.666992 0 1.5 -0.166992 2.5 -0.5
s1.83301 -0.5 2.5 -0.5c0.666992 -0.666992 1.5 -1 2.5 -1h2.5h2.5h3.5c0 -0.666992 0.166992 -1 0.5 -1h1.5h2h2c4 -0.666992 7.83301 -1.5 11.5 -2.5s7.16699 -2.16699 10.5 -3.5s6.83301 -3 10.5 -5l10.5 -6c3.33301 -2 6.16602 -4.16699 8.49902 -6.5
s4.83301 -5.16602 7.5 -8.49902c2.66699 -2.66699 5.16699 -5.83398 7.5 -9.50098s4.16602 -7.16699 5.49902 -10.5c1.33301 -2 2.33301 -4 3 -6s1.33398 -3.66699 2.00098 -5c0.666992 -2 1.16699 -4 1.5 -6s0.833008 -4 1.5 -6c0 -2 0.166992 -4 0.5 -6
s0.833008 -4 1.5 -6s1.16699 -4 1.5 -6s0.5 -4 0.5 -6v-1.5v-1.5v-1.5v-1.5v-1.5v-0.5v-1.5v-0.5c0 -10.667 -0.666992 -20.5 -2 -29.5s-3.33301 -17.167 -6 -24.5s-6.16699 -14 -10.5 -20s-9.16602 -11 -14.499 -15c-5.33301 -4.66699 -11 -8.66699 -17 -12
s-12.667 -6 -20 -8c-6.66699 -2.66699 -13.834 -4.66699 -21.501 -6s-15.5 -2 -23.5 -2v2v0v0zM241.001 394l67.9961 0.000976562l1.5 -1.5c0.333008 -0.333008 0.833008 -0.5 1.5 -0.5h2h2h0.5h0.5h0.5h1.5h3h2h3.5h3.5h3.5h3.5h2h2h1h2h4.5h3.5h8
c2.66699 0 5.33398 0.333008 8.00098 1c2 0 4.33301 0.333008 7 1l8 2c4.66699 1.33301 9.33398 2.83301 14.001 4.5s9.33398 3.83398 14.001 6.50098c4 2 7.66699 5 11 9s6.33301 8.33301 9 13c2 5.33301 3.66699 11.333 5 18s2 14 2 22
c0 7.33301 -0.666992 14.166 -2 20.499s-3 11.833 -5 16.5c-2.66699 5.33301 -5.5 9.66602 -8.5 12.999s-6.5 6.33301 -10.5 9l-13.5 6c-4.33301 2 -9.16602 3.33301 -14.499 4c-2.66699 0.666992 -5.16699 1.16699 -7.5 1.5s-4.5 0.833008 -6.5 1.5
c-2.66699 0.666992 -5.16699 1.16699 -7.5 1.5s-4.83301 0.5 -7.5 0.5h-1.5h-0.5h-1v0h-1.5h-0.5v0v0h-1v0h-1.5h-1.5h-1.5h-0.5l-104 2v-151v0v0v0z" />
    <glyph glyph-name="overstore" unicode="&#xaf;" 
 />
    <glyph glyph-name="degree" unicode="&#xb0;" 
 />
    <glyph glyph-name="plusminus" unicode="&#xb1;" horiz-adv-x="515" 
d="M43 0v76h428v-76h-428v0v0v0zM225 392v162h64v-162h182v-76h-182v-164h-64v164h-182v76h182v0v0v0z" />
    <glyph glyph-name="twosuperior" unicode="&#xb2;" 
 />
    <glyph glyph-name="threesuperior" unicode="&#xb3;" 
 />
    <glyph glyph-name="acute" unicode="&#xb4;" horiz-adv-x="318" 
d="M62 669l164 116l29 -58l-164 -114l-29 56v0v0v0z" />
    <glyph glyph-name="mu" unicode="&#xb5;" horiz-adv-x="516" 
d="M400 258l0.00195312 289.001h63v-547h-60v85h-1c-4 -9.33301 -8.33301 -18 -13 -26s-9.66699 -15 -15 -21c-4.66699 -6.66699 -10 -12.5 -16 -17.5s-12.333 -9.16699 -19 -12.5s-13.667 -6 -21 -8l-22 -6c-7.33301 -2 -14.833 -3.5 -22.5 -4.5s-15.834 -1.5 -24.501 -1.5
c-6 0 -12 0.333008 -18 1s-11.667 1.66699 -17 3c-6 0.666992 -11.833 1.83398 -17.5 3.50098s-11.167 3.16699 -16.5 4.5c-5.33301 2 -10.833 4.5 -16.5 7.5s-11.167 6.5 -16.5 10.5s-10.5 8.33301 -15.5 13s-10.167 10 -15.5 16v-239h-63v739h63v-289v-17
c0 -5.33301 0.333008 -10.666 1 -15.999c0 -5.33301 0.166992 -10.5 0.5 -15.5s0.833008 -10.167 1.5 -15.5s1.5 -10.5 2.5 -15.5s2.16699 -10.167 3.5 -15.5c1.33301 -4.66699 2.83301 -9.33398 4.5 -14.001s3.83398 -9.33398 6.50098 -14.001
c3.33301 -6.66699 6.83301 -12.667 10.5 -18l11.5 -16l14 -13.5c4.66699 -4.33301 9.66699 -8.16602 15 -11.499s10.833 -6.33301 16.5 -9s11.5 -4.66699 17.5 -6c6 -2 12 -3.33301 18 -4s12.333 -1 19 -1c5.33301 0 10.833 0.333008 16.5 1s10.834 1.66699 15.501 3
c5.33301 1.33301 10.666 3.16602 15.999 5.49902s10.666 4.83301 15.999 7.5l13.5 10c4.33301 3.33301 8.83301 7 13.5 11c4 4 8 8.5 12 13.5s7.66699 10.167 11 15.5c3.33301 4.66699 6.16602 9.5 8.49902 14.5s4.16602 10.167 5.49902 15.5
c2 5.33301 3.83301 10.666 5.5 15.999s2.83398 11 3.50098 17c0.666992 5.33301 1.16699 10.833 1.5 16.5s0.833008 11.5 1.5 17.5s1.16699 12 1.5 18s0.5 12 0.5 18v2v0v0z" />
    <glyph glyph-name="paragraph" unicode="&#xb6;" horiz-adv-x="479" 
d="M194 -127l0.000976562 482c-10.667 -0.666992 -21.167 0 -31.5 2s-20.166 5.33301 -29.499 10s-18.5 10.5 -27.5 17.5s-17.5 15.167 -25.5 24.5c-8.66699 9.33301 -16 19.333 -22 30s-11 21.334 -15 32.001c-4.66699 11.333 -7.83398 23 -9.50098 35s-2.5 24.333 -2.5 37
c0 6.66699 0.333008 13.334 1 20.001l2 20c1.33301 7.33301 2.83301 14.166 4.5 20.499s3.83398 12.833 6.50098 19.5c2 6.66699 4.5 13 7.5 19s6.16699 11.667 9.5 17s6.83301 10.5 10.5 15.5s7.83398 9.83301 12.501 14.5c5.33301 5.33301 10.666 10.333 15.999 15
s10.333 8.33398 15 11.001c5.33301 3.33301 10.666 6.16602 15.999 8.49902s10.666 4.16602 15.999 5.49902c2.66699 0.666992 5.5 1.16699 8.5 1.5s5.83301 0.833008 8.5 1.5c3.33301 0 6.5 0.166992 9.5 0.5s5.83301 0.833008 8.5 1.5c6 0.666992 12.167 1.16699 18.5 1.5
s12.833 0.833008 19.5 1.5l196 2v-866h-63v799h-97v-799h-63v0v0v0z" />
    <glyph glyph-name="middot" unicode="&#xb7;" 
 />
    <glyph glyph-name="cedilla" unicode="&#xb8;" horiz-adv-x="275" 
d="M140 0l-21.0049 -58.002c0 1.33301 0.166992 2.16602 0.5 2.49902s0.833008 0.5 1.5 0.5h0.5h1.5v1h1v0h1l1.5 1.5c0.333008 0.333008 0.833008 0.5 1.5 0.5h1.5h0.5c0.666992 0.666992 1.33398 1.16699 2.00098 1.5s1.33398 0.5 2.00098 0.5h1.5h1.5h2h2h2.5h2.5
c3.33301 0 6.5 -0.166992 9.5 -0.5s5.83301 -0.833008 8.5 -1.5c1.33301 0 2.83301 -0.333008 4.5 -1s3.16699 -1.33398 4.5 -2.00098c4 -2 7.83301 -4.33301 11.5 -7s6.83398 -6 9.50098 -10c3.33301 -3.33301 6 -7.16602 8 -11.499l6 -13.5
c1.33301 -5.33301 2.33301 -10.666 3 -15.999s1 -11 1 -17s-0.666992 -11.833 -2 -17.5l-4 -16.5c-1.33301 -5.33301 -3.33301 -10.5 -6 -15.5s-5.66699 -9.83301 -9 -14.5c-2 -3.33301 -4.5 -6.16602 -7.5 -8.49902l-8.5 -6.5
c-1.33301 -1.33301 -2.66602 -2.5 -3.99902 -3.5s-2.66602 -1.83301 -3.99902 -2.5c-4.66699 -2 -9.33398 -3.66699 -14.001 -5s-9.66699 -2 -15 -2c-4.66699 0 -9.33398 0.5 -14.001 1.5s-9.33398 2.16699 -14.001 3.5l-11.5 6c-3.66699 2 -7.16699 4.66699 -10.5 8
c-3.33301 2.66699 -6.33301 6 -9 10s-5 8.33301 -7 13s-3.83301 9.5 -5.5 14.5s-3.16699 10.167 -4.5 15.5l38 4c0 -0.666992 0.166992 -1.33398 0.5 -2.00098s0.5 -1.66699 0.5 -3l0.5 -0.5l0.5 -0.5c0 -0.666992 0.166992 -1.33398 0.5 -2.00098
s0.5 -1.33398 0.5 -2.00098c1.33301 -1.33301 2.5 -2.83301 3.5 -4.5s2.16699 -3.16699 3.5 -4.5l2 -2c0.666992 -0.666992 1.66699 -1.33398 3 -2.00098c0.666992 0 1.33398 -0.333008 2.00098 -1l2 -2l3 -1.5l3 -1.5c0.666992 0 1.5 -0.166992 2.5 -0.5
s1.83301 -0.833008 2.5 -1.5v0v0h0.5h1.5v0v0h0.5h1.5v0h1v0v0v0h1v-0.5v-0.5v0h1v0v0h0.5h1.5c2.66699 0 5.16699 0.333008 7.5 1s4.5 1.66699 6.5 3c2.66699 0.666992 5 2 7 4s3.66699 4 5 6c2 2.66699 3.66699 5.16699 5 7.5s2.33301 4.83301 3 7.5
c1.33301 2.66699 2 5.5 2 8.5v9.5c0 3.33301 -0.166992 6.5 -0.5 9.5s-1.16602 5.83301 -2.49902 8.5c-0.666992 2.66699 -1.83398 5.33398 -3.50098 8.00098l-4.5 7l-3.5 3.5l-3.5 3.5c-1.33301 0.666992 -2.5 1.33398 -3.5 2.00098s-2.16699 1.33398 -3.5 2.00098
c-2.66699 0.666992 -5.16699 1.33398 -7.5 2.00098s-4.83301 1 -7.5 1h-6.5c-1.66699 0 -3.16699 -0.333008 -4.5 -1s-2.5 -1.16699 -3.5 -1.5s-1.83301 -0.833008 -2.5 -1.5l-1.5 -1.5c-0.333008 -0.333008 -0.833008 -0.5 -1.5 -0.5
c-1.33301 -1.33301 -2.66602 -2.5 -3.99902 -3.5s-2.66602 -2.16699 -3.99902 -3.5s-2.5 -2.66602 -3.5 -3.99902s-1.83301 -3 -2.5 -5l-27 16l34 90h32v0v0v0z" />
    <glyph glyph-name="onesuperior" unicode="&#xb9;" 
 />
    <glyph glyph-name="ordmasculine" unicode="&#xba;" horiz-adv-x="313" 
d="M27 369h259v-44h-259v44v0v0v0zM157 751c9.33301 -0.666992 18.0068 -2.16406 26.0068 -4.49707s15.667 -5.5 23 -9.5s14.5 -8.83301 21.5 -14.5s13.833 -12.167 20.5 -19.5c6 -8 11.5 -16 16.5 -24s9.16699 -16.667 12.5 -26c3.33301 -8.66699 5.66602 -18 6.99902 -28
s2 -20 2 -30c0 -10.667 -0.833008 -20.667 -2.5 -30s-4.16699 -18.333 -7.5 -27s-7.33301 -17.167 -12 -25.5s-10.334 -16.166 -17.001 -23.499s-13.334 -13.833 -20.001 -19.5s-14 -10.5 -22 -14.5c-7.33301 -4 -15 -6.83301 -23 -8.5s-16.333 -2.5 -25 -2.5
s-17.167 0.833008 -25.5 2.5s-16.5 4.5 -24.5 8.5c-7.33301 3.33301 -14.5 7.83301 -21.5 13.5s-13.833 12.167 -20.5 19.5s-12.334 15.166 -17.001 23.499s-8.66699 16.833 -12 25.5c-3.33301 9.33301 -5.66602 18.666 -6.99902 27.999s-2 19.333 -2 30s0.666992 21 2 31
s3.66602 19.333 6.99902 28c3.33301 9.33301 7.16602 18.166 11.499 26.499s9.83301 16.166 16.5 23.499s13.5 13.833 20.5 19.5s14.5 10.5 22.5 14.5c7.33301 3.33301 15.166 6 23.499 8s17.166 3 26.499 3v2v0v0zM157.007 490.003
c6.66699 -0.666992 12.834 -0.5 18.501 0.5s11.167 2.83301 16.5 5.5s10.5 6 15.5 10s9.5 8.66699 13.5 14c4.66699 5.33301 8.5 10.833 11.5 16.5s5.5 11.834 7.5 18.501s3.66699 13.5 5 20.5s2 14.167 2 21.5s-0.666992 14.5 -2 21.5s-3 13.5 -5 19.5s-4.5 12 -7.5 18
s-6.83301 11.667 -11.5 17c-4 5.33301 -8.5 10 -13.5 14s-10.167 7.33301 -15.5 10s-10.833 4.66699 -16.5 6s-11.834 2 -18.501 2s-13.167 -0.666992 -19.5 -2s-12.166 -3.33301 -17.499 -6s-10.333 -6 -15 -10s-9.33398 -8.66699 -14.001 -14
c-4 -5.33301 -7.66699 -11 -11 -17s-6 -12 -8 -18s-3.5 -12.5 -4.5 -19.5s-1.5 -14.167 -1.5 -21.5s0.5 -14.5 1.5 -21.5s2.5 -13.833 4.5 -20.5s4.66699 -12.834 8 -18.501s7 -11.167 11 -16.5c4.66699 -5.33301 9.33398 -10 14.001 -14s9.66699 -7.33301 15 -10
s11.166 -4.66699 17.499 -6s12.833 -2 19.5 -2v2v0v0z" />
    <glyph glyph-name="guillemotright" unicode="&#xbb;" horiz-adv-x="361" 
d="M83 101l-49 32l79 168l-79 168l49 31l96 -199l-96 -200v0v0v0zM231 101l-50 32l79 168l-79 168l50 31l96 -199l-96 -200v0v0v0z" />
    <glyph glyph-name="onequarter" unicode="&#xbc;" 
 />
    </font>
</defs>
</svg>
